coor
武林高手

[2008] [其他] [喜剧] [BD-720P] 大搜查之女 Lady.Cop.and.Papa.Crook.2008.THEATRiCAL.720p.BluRay.x264-REGRET 4.38GB

-->

帖子完整标题:大搜查之女 Lady.Cop.and.Papa.Crook.2008.THEATRiCAL.720p.BluRay.x264-REGRET 4.38GB




◎译  名 Lady Cop & Papa Crook / 大搜查
◎片  名 大搜查之女
◎年  代 2008
◎产  地 中国香港 / 中国大陆
◎类  别 喜剧 / 惊悚 / 犯罪
◎语  言 粤语 / 普通话
◎上映日期 2008-12-24
◎IMDb评分 5.2/10 from 269 users
◎IMDb链接 https://www.imdb.com/title/tt1258130
◎豆瓣评分 5.9/10 from 18728 users
◎豆瓣链接 https://movie.douban.com/subject/3136488/
◎片  长 92分钟
◎导  演 麦兆辉 / 庄文强
◎编  剧 麦兆辉 / 庄文强
◎主  演 郑秀文
      陈奕迅
      张国立
      董勇
      杜汶泽
      叶璇
      徐子珊
      刘浩龙
      任贤齐
      陈子聪
      黄德斌
      谭耀文
      谷祖琳


◎标  签 郑秀文 | 陈奕迅 | 香港电影 | 香港 | 麦兆辉 | 警匪 | 2008 | 电影

◎简  介

  33岁还未结婚的香港女警司徒慕莲(郑秀文饰)一直为自己的婚事发愁。男友十年前的承诺,现在成了她与同事间的笑谈。一日,走私集团的头领霍青松(陈奕迅饰)的儿子被绑架,司徒慕莲奉命处理这宗案件。但霍青松一家为避免因走私之事被警方控告,处处表现出不合作的态度,而此时司徒慕莲发现自己有了身孕。
  黑白两道在一间大屋下貌和神离,霍家上下各自心怀暗计,同时,大陆警方也传来了联合破案的消息。作为“剩女”的司徒慕莲、作为警察的司徒慕莲,她到底能否解决眼前面对的一切?
Video
ID : 1
Format : AVC
Format/Info : Advanced Video Codec
Format profile : [email protected]
Format settings : CABAC / 5 Ref Frames
Format settings, CABAC : Yes
Format settings, Reference frames : 5 frames
Codec ID : V_MPEG4/ISO/AVC
Duration : 1 h 31 min
Bit rate : 6 174 kb/s
Width : 1 280 pixels
Height : 720 pixels
Display aspect ratio : 16:9
Frame rate mode : Constant
Frame rate : 24.000 FPS
Color space : YUV
Chroma subsampling : 4:2:0
Bit depth : 8 bits
Scan type : Progressive
Bits/(Pixel*Frame) : 0.279
Stream size : 3.96 GiB (91%)
Writing library : x264 core 158 r2988 7817004
Encoding settings : cabac=1 / ref=5 / deblock=1:-3:-3 / analyse=0x3:0x133 / me=umh / subme=9 / psy=1 / psy_rd=1.00:0.00 / mixed_ref=1 / me_range=16 / chroma_me=1 / trellis=2 / 8x8dct=1 / cqm=0 / deadzone=21,11 / fast_pskip=0 / chroma_qp_offset=-2 / threads=22 / lookahead_threads=1 / sliced_threads=0 / nr=0 / decimate=1 / interlaced=0 / bluray_compat=0 / constrained_intra=0 / bframes=3 / b_pyramid=2 / b_adapt=1 / b_bias=0 / direct=3 / weightb=1 / open_gop=0 / weightp=2 / keyint=240 / keyint_min=24 / scenecut=40 / intra_refresh=0 / rc_lookahead=50 / rc=2pass / mbtree=1 / bitrate=6174 / ratetol=1.0 / qcomp=0.60 / qpmin=0 / qpmax=69 / qpstep=4 / cplxblur=20.0 / qblur=0.5 / ip_ratio=1.40 / aq=1:1.00
Language : English
Default : Yes
Forced : No

Audio
ID : 2
Format : AC-3
Format/Info : Audio Coding 3
Commercial name : Dolby Digital
Codec ID : A_AC3
Duration : 1 h 31 min
Bit rate mode : Constant
Bit rate : 640 kb/s
Channel(s) : 6 channels
Channel layout : L R C LFE Ls Rs
Sampling rate : 48.0 kHz
Frame rate : 31.250 FPS (1536 SPF)
Bit depth : 16 bits
Compression mode : Lossy
Stream size : 420 MiB (9%)
Language : Chinese
Service kind : Complete Main
Default : Yes
Forced : No

Text
ID : 3
Format : UTF-8
Codec ID : S_TEXT/UTF8
Codec ID/Info : UTF-8 Plain Text
Duration : 1 h 27 min
Bit rate : 43 b/s
Count of elements : 1066
Stream size : 28.0 KiB (0%)
Title : English Forced
Language : English
Default : Yes
Forced : Yes

Menu
00:00:00.000 : en:00:00:00.000
00:06:34.000 : en:00:06:34.000
00:11:44.000 : en:00:11:44.000
00:15:12.000 : en:00:15:12.000
00:18:30.000 : en:00:18:30.000
00:23:42.000 : en:00:23:42.000
00:26:16.000 : en:00:26:16.000
00:31:00.000 : en:00:31:00.000
00:36:48.000 : en:00:36:48.000
00:40:53.000 : en:00:40:53.000
00:45:48.000 : en:00:45:48.000
00:50:18.000 : en:00:50:18.000
00:54:44.000 : en:00:54:44.000
01:00:49.000 : en:01:00:49.000
01:07:13.000 : en:01:07:13.000
01:11:05.000 : en:01:11:05.000
01:17:30.000 : en:01:17:30.000
01:21:55.000 : en:01:21:55.000
01:25:24.000 : en:01:25:24.000
01:28:59.000 : en:01:28:59.000





1 个附件 售价 大小 下载 时间

Lady.Cop.and.Papa.Crook.2008.THEATRiCAL.720p.BluRay.x264-REGRET.torrent 0 金币 44.59K 238 次 9天前

#1楼
发帖时间:2019-12-02 22:51:44   |   回复数:1
911degrees
隐世仙人♂
非常感谢,谢谢分享
9天前 #2楼
游客组