coor
武林高手

[更 早] [欧美] [爱情] [WEB-1080P] 重回蓝色珊瑚礁/91青春珊瑚岛 Return.to.the.Blue.Lagoon.1991.1080p.WEBRip.x264-RARBG 1.94GB

-->

帖子完整标题:重回蓝色珊瑚礁/91青春珊瑚岛 Return.to.the.Blue.Lagoon.1991.1080p.WEBRip.x264-RARBG 1.94GB




◎译  名 重回蓝色珊瑚礁 / 91青春珊瑚岛
◎片  名 Return to the Blue Lagoon
◎年  代 1991
◎产  地 美国
◎类  别 爱情 / 冒险
◎语  言 英语
◎上映日期 1991-08-02
◎IMDb评分 5.2/10 from 17142 users
◎IMDb链接 https://www.imdb.com/title/tt0102782
◎豆瓣评分 6.7/10 from 493 users
◎豆瓣链接 https://movie.douban.com/subject/1296184/
◎片  长 98 分钟
◎导  演 威廉·A·格雷厄姆 William A. Graham
◎编  剧 Henry De Vere Stacpoole / Leslie Stevens
◎主  演 米拉·乔沃维奇 Milla Jovovich
      布莱恩·克劳斯 Brian Krause
      丽莎·帕里坎 Lisa Pelikan
      Courtney Barilla
      Garette Ratliff Henson
      Peter Hehir
      John Mann
      韦恩·佩格拉姆 Wayne Pygram
      John Dicks
      Gus Mercurio


◎标  签 爱情 | 青春 | 美国电影 | 美国 | 重回蓝色的珊瑚礁 | 重回蓝色珊瑚礁 | 经典 | 浪漫爱情

◎简  介

  经典重拍之作,理查和莉莉在还是小婴孩的时候发生了船难,只有他们俩和一个寡妇倖存,他们一起漂流到了一个无人岛上,被寡妇抚养长大成人,长大后的小男孩小女孩对彼此产生了感情,并约定要互许终生,后来终于有艘船来到了无人岛上发现了他们,船长的女儿见到理查便爱上了他,并且企图把理查由莉莉的身边夺走...
Video
ID : 1
Format : AVC
Format/Info : Advanced Video Codec
Format profile : [email protected]
Format settings : CABAC / 4 Ref Frames
Format settings, CABAC : Yes
Format settings, Reference frames : 4 frames
Codec ID : avc1
Codec ID/Info : Advanced Video Coding
Duration : 1 h 41 min
Bit rate : 2 500 kb/s
Width : 1 920 pixels
Height : 1 080 pixels
Display aspect ratio : 16:9
Frame rate mode : Constant
Frame rate : 23.976 (23976/1000) FPS
Color space : YUV
Chroma subsampling : 4:2:0
Bit depth : 8 bits
Scan type : Progressive
Bits/(Pixel*Frame) : 0.050
Stream size : 1.78 GiB (92%)
Writing library : x264 core 152 r2851M ba24899
Encoding settings : cabac=1 / ref=4 / deblock=1:-1:-1 / analyse=0x3:0x113 / me=umh / subme=9 / psy=1 / psy_rd=1.00:0.15 / mixed_ref=1 / me_range=24 / chroma_me=1 / trellis=2 / 8x8dct=1 / cqm=0 / deadzone=21,11 / fast_pskip=1 / chroma_qp_offset=-3 / threads=16 / lookahead_threads=4 / sliced_threads=0 / nr=0 / decimate=1 / interlaced=0 / bluray_compat=0 / constrained_intra=0 / bframes=3 / b_pyramid=2 / b_adapt=2 / b_bias=0 / direct=3 / weightb=1 / open_gop=0 / weightp=2 / keyint=250 / keyint_min=25 / scenecut=40 / intra_refresh=0 / rc_lookahead=50 / rc=2pass / mbtree=1 / bitrate=2500 / ratetol=1.0 / qcomp=0.60 / qpmin=0 / qpmax=69 / qpstep=4 / cplxblur=20.0 / qblur=0.5 / vbv_maxrate=31250 / vbv_bufsize=31250 / nal_hrd=none / filler=0 / ip_ratio=1.40 / aq=3:1.00
Encoded date : UTC 2019-12-02 09:14:25
Tagged date : UTC 2019-12-02 09:14:25
Codec configuration box : avcC

Audio
ID : 2
Format : AAC LC
Format/Info : Advanced Audio Codec Low Complexity
Codec ID : mp4a-40-2
Duration : 1 h 41 min
Bit rate mode : Constant
Bit rate : 224 kb/s
Channel(s) : 2 channels
Channel layout : L R
Sampling rate : 48.0 kHz
Frame rate : 46.875 FPS (1024 SPF)
Compression mode : Lossy
Stream size : 163 MiB (8%)
Language : English
Default : Yes
Alternate group : 1
Encoded date : UTC 2019-12-02 09:14:25
Tagged date : UTC 2019-12-02 09:14:25





1 个附件 售价 大小 下载 时间

Return.to.the.Blue.Lagoon.1991.1080p.WEBRip.x264-RARBG.torrent 0 金币 20.05K 686 次 9天前

#1楼
发帖时间:2019-12-02 21:55:29   |   回复数:2
911degrees
隐世仙人♂
非常感谢,谢谢分享
9天前 #2楼
tanchoohoon
武林盟主
感谢楼主的无私分享
8天前 #3楼
游客组