coor
武林高手

[2019] [欧美] [剧情] [WEB-1080P] 亚利桑那小姐 Miss.Arizona.2018.1080p.AMZN.WEBRip.DDP5.1.x264-iKA 6.60GB

-->

帖子完整标题:亚利桑那小姐 Miss.Arizona.2018.1080p.AMZN.WEBRip.DDP5.1.x264-iKA 6.60GB




◎译  名 亚利桑那小姐
◎片  名 Miss Arizona
◎年  代 2019
◎产  地 美国
◎类  别 剧情
◎语  言 英语
◎上映日期 2018-06-10(美国)
◎IMDb评分 4.8/10 from 124 users
◎IMDb链接 http://www.imdb.com/title/tt7356166
◎豆瓣评分 0/10 from 0 users
◎豆瓣链接 https://movie.douban.com/subject/27127788/
◎片  长 94分钟
◎导  演 Autumn McAlpin
◎编  剧 Autumn McAlpin
◎主  演 乔安娜·布拉迪 Johanna Braddy
      米西·派勒 Missi Pyle
      斯蒂夫·古根伯格 Steve Guttenberg
      罗宾·莱弗里 Robyn Lively
      凯文·赫夫南 Kevin Heffernan
      奥特玛拉·马蕾罗 Otmara Marrero
      米雪儿 Michelle Lang
      亚当·约翰逊 Adam Johnson
      金· 德吉泽斯 Kim DeJesus
      加雷特·海因斯 Garrett Hines
      Dana Wheeler-Nicholson
      Kyle Howard


◎简  介

  美剧《谍网》女星乔安娜·布拉迪参演独立电影[亚利桑那小姐](Miss Arizona,暂译)。本片由奥特姆·麦卡尔潘自编自导,布拉迪扮演一名前选美冠军,当她在避难所遇到四名寻求庇护的女子后,她们开始没日没夜的冒险。据悉,本片75%的演员和工作者均为女性,制片方似有意让女性独挑大梁。
Video
ID : 1
Format : AVC
Format/Info : Advanced Video Codec
Format profile : [email protected]
Format settings : CABAC / 4 Ref Frames
Format settings, CABAC : Yes
Format settings, Reference frames : 4 frames
Codec ID : V_MPEG4/ISO/AVC
Duration : 1 h 33 min
Bit rate mode : Constant
Bit rate : 9 428 kb/s
Nominal bit rate : 10 000 kb/s
Width : 1 920 pixels
Height : 1 080 pixels
Display aspect ratio : 16:9
Frame rate mode : Constant
Frame rate : 23.976 (24000/1001) FPS
Color space : YUV
Chroma subsampling : 4:2:0
Bit depth : 8 bits
Scan type : Progressive
Bits/(Pixel*Frame) : 0.190
Stream size : 6.18 GiB (94%)
Default : Yes
Forced : No
Color range : Limited
Color primaries : BT.709
Transfer characteristics : BT.709
Matrix coefficients : BT.709

Audio
ID : 2
Format : E-AC-3
Format/Info : Enhanced AC-3
Commercial name : Dolby Digital Plus
Codec ID : A_EAC3
Duration : 1 h 33 min
Bit rate mode : Constant
Bit rate : 640 kb/s
Channel(s) : 6 channels
Channel layout : L R C LFE Ls Rs
Sampling rate : 48.0 kHz
Frame rate : 31.250 FPS (1536 SPF)
Compression mode : Lossy
Stream size : 430 MiB (6%)
Language : English
Service kind : Complete Main
Default : Yes
Forced : No

Text
ID : 3
Format : UTF-8
Codec ID : S_TEXT/UTF8
Codec ID/Info : UTF-8 Plain Text
Duration : 1 h 33 min
Bit rate : 91 b/s
Count of elements : 2050
Stream size : 62.7 KiB (0%)
Language : English
Default : No
Forced : No





1 个附件 售价 大小 下载 时间

Miss.Arizona.2018.1080p.AMZN.WEBRip.DDP5.1.x264-iKA.torrent 0 金币 33.55K 322 次 9天前

#1楼
发帖时间:2019-12-02 21:09:19   |   回复数:1
911degrees
隐世仙人♂
非常感谢,谢谢分享
9天前 #2楼
游客组