conanlcg
超级版主

[2014] [其他] [剧情] [WEB-1080P] 完美独裁 The.Perfect.Dictatorship.2014.DUBBED.1080p.WEBRip.x264-RARBG 2.73GB

-->

帖子完整标题:完美独裁 The.Perfect.Dictatorship.2014.DUBBED.1080p.WEBRip.x264-RARBG 2.73GB




◎译  名 完美独裁 / The Perfect Dictatorship
◎片  名 La dictadura perfecta
◎年  代 2014
◎产  地 墨西哥
◎类  别 剧情 / 喜剧
◎语  言 西班牙语
◎上映日期 2014-10-16(墨西哥)
◎IMDb评分 7.2/10 from 4081 users
◎IMDb链接 https://www.imdb.com/title/tt3970854
◎豆瓣评分 0/10 from 0 users
◎豆瓣链接 https://movie.douban.com/subject/25964810/
◎片  长 143分钟
◎导  演 Luis Estrada
◎编  剧 Luis Estrada
◎主  演 Damián Alcázar
      Alfonso Herrera
      华金·科西奥 Joaquín Cosio
      Osvaldo Benavides
      Silvia Navarro
      Saúl Lisazo
      Tony Dalton


◎标  签 墨西哥 | 墨西哥电影 | 政治 | 讽刺 | 2014 | 路易斯·埃斯特拉达 | 西班牙 | 男演员_墨西哥_Cosio_Joaquín

◎简  介

  TV MX, the most powerful Mexican Television Corporation, discloses a scandalous story involving Governor Carmelo Vargas in serious crimes and illicit business. Governor Vargas worried about his political future, decides to clean his image and negotiates a billionaire secret agreement with the owners of the TV Corporation. Carlos Rojo, an ambitious young news producer, and Ricardo Diaz, TV network star reporter, are responsible for making a dirty campaign to change the image the public has of the corrupt Governor and make him, at any cost, a political star and a great presidential candidate. Mexican Television believes that democracy is a farce and has already placed one President... Will they do it again?
Video
ID : 1
Format : AVC
Format/Info : Advanced Video Codec
Format profile : [email protected]
Format settings : CABAC / 4 Ref Frames
Format settings, CABAC : Yes
Format settings, Reference frames : 4 frames
Codec ID : avc1
Codec ID/Info : Advanced Video Coding
Duration : 2 h 23 min
Bit rate : 2 500 kb/s
Width : 1 920 pixels
Height : 820 pixels
Display aspect ratio : 2.35:1
Frame rate mode : Constant
Frame rate : 23.976 (23976/1000) FPS
Color space : YUV
Chroma subsampling : 4:2:0
Bit depth : 8 bits
Scan type : Progressive
Bits/(Pixel*Frame) : 0.066
Stream size : 2.50 GiB (92%)
Writing library : x264 core 152 r2851M ba24899
Encoding settings : cabac=1 / ref=4 / deblock=1:-1:-1 / analyse=0x3:0x113 / me=umh / subme=9 / psy=1 / psy_rd=1.00:0.15 / mixed_ref=1 / me_range=24 / chroma_me=1 / trellis=2 / 8x8dct=1 / cqm=0 / deadzone=21,11 / fast_pskip=1 / chroma_qp_offset=-3 / threads=16 / lookahead_threads=4 / sliced_threads=0 / nr=0 / decimate=1 / interlaced=0 / bluray_compat=0 / constrained_intra=0 / bframes=3 / b_pyramid=2 / b_adapt=2 / b_bias=0 / direct=3 / weightb=1 / open_gop=0 / weightp=2 / keyint=250 / keyint_min=25 / scenecut=40 / intra_refresh=0 / rc_lookahead=50 / rc=2pass / mbtree=1 / bitrate=2500 / ratetol=1.0 / qcomp=0.60 / qpmin=0 / qpmax=69 / qpstep=4 / cplxblur=20.0 / qblur=0.5 / vbv_maxrate=31250 / vbv_bufsize=31250 / nal_hrd=none / filler=0 / ip_ratio=1.40 / aq=3:1.00
Encoded date : UTC 2019-11-09 03:13:35
Tagged date : UTC 2019-11-09 03:13:35
Codec configuration box : avcC

Audio
ID : 2
Format : AAC LC
Format/Info : Advanced Audio Codec Low Complexity
Codec ID : mp4a-40-2
Duration : 2 h 23 min
Duration_LastFrame : -11 ms
Bit rate mode : Constant
Bit rate : 224 kb/s
Channel(s) : 6 channels
Channel layout : C L R Ls Rs LFE
Sampling rate : 48.0 kHz
Frame rate : 46.875 FPS (1024 SPF)
Compression mode : Lossy
Stream size : 230 MiB (8%)
Language : English
Default : Yes
Alternate group : 1
Encoded date : UTC 2019-11-09 03:13:35
Tagged date : UTC 2019-11-09 03:13:35





1 个附件 售价 大小 下载 时间

The.Perfect.Dictatorship.2014.DUBBED.1080p.WEBRip.x264-RARBG.torrent 0 金币 28.70K 168 次 8天前

#1楼
发帖时间:2019-11-09 13:19:40   |   回复数:1
911degrees
隐世仙人♂
非常感谢,谢谢分享
7天前 #2楼
游客组