conanlcg
超级版主

[更 早] [欧美] [动作] [BD-1080P] 倾力出击 The.Sender.1998.1080p.BluRay.x264.DTS-FGT 8.34GB

-->

帖子完整标题:倾力出击 The.Sender.1998.1080p.BluRay.x264.DTS-FGT 8.34GB




◎译  名 倾力出击
◎片  名 The Sender
◎年  代 1998
◎产  地 美国
◎类  别 动作 / 科幻
◎语  言 英语
◎上映日期 1998
◎IMDb评分 3.8/10 from 687 users
◎IMDb链接 https://www.imdb.com/title/tt0138089
◎豆瓣评分 0/10 from 0 users
◎豆瓣链接 https://movie.douban.com/subject/5105302/
◎片  长 98分钟
◎导  演 Richard Pepin
◎编  剧 Nathan Long
◎主  演 迈克尔·马德森 Michael Madsen
      R. Lee Ermey


◎标  签 美国 | 科幻 | 奇幻 | sender | 剧情 | the | +

◎简  介

  In 1965, an American fighter squadron encountered a spaceship while flying over the Bermuda Triangle. After getting into a brief dogfight with it, one of the fighters is shot down, and the others agree to keep what they've seen a secret. Years later, the downed aircraft is recovered, and the son of the missing pilot insists on seeing it. Soon, strange ocurrences start happening around the son and his family. Could there be any connection with what his father witnessed?
Video
ID : 1
Format : AVC
Format/Info : Advanced Video Codec
Format profile : [email protected]
Format settings : CABAC / 4 Ref Frames
Format settings, CABAC : Yes
Format settings, Reference frames : 4 frames
Codec ID : V_MPEG4/ISO/AVC
Duration : 1 h 31 min
Bit rate : 11.5 Mb/s
Width : 1 920 pixels
Height : 1 080 pixels
Display aspect ratio : 16:9
Frame rate mode : Constant
Frame rate : 23.976 (24000/1001) FPS
Color space : YUV
Chroma subsampling : 4:2:0
Bit depth : 8 bits
Scan type : Progressive
Bits/(Pixel*Frame) : 0.231
Stream size : 7.37 GiB (88%)
Title : The.Sender.1998.1080p.BluRay.x264.DTS-FGT
Writing library : x264 core 148 r2795M aaa9aa8
Encoding settings : cabac=1 / ref=4 / deblock=1:-2:-2 / analyse=0x3:0x113 / me=umh / subme=9 / psy=1 / psy_rd=1.00:0.15 / mixed_ref=1 / me_range=16 / chroma_me=1 / trellis=2 / 8x8dct=1 / cqm=0 / deadzone=21,11 / fast_pskip=1 / chroma_qp_offset=-3 / threads=24 / lookahead_threads=3 / sliced_threads=0 / nr=0 / decimate=1 / interlaced=0 / bluray_compat=0 / constrained_intra=0 / bframes=3 / b_pyramid=2 / b_adapt=1 / b_bias=0 / direct=3 / weightb=1 / open_gop=0 / weightp=2 / keyint=250 / keyint_min=25 / scenecut=40 / intra_refresh=0 / rc_lookahead=50 / rc=2pass / mbtree=1 / bitrate=11500 / ratetol=1.0 / qcomp=0.60 / qpmin=0 / qpmax=69 / qpstep=4 / cplxblur=20.0 / qblur=0.5 / vbv_maxrate=31250 / vbv_bufsize=31250 / nal_hrd=none / filler=0 / ip_ratio=1.40 / aq=1:1.00
Language : English
Default : Yes
Forced : No

Audio
ID : 2
Format : DTS
Format/Info : Digital Theater Systems
Codec ID : A_DTS
Duration : 1 h 31 min
Bit rate mode : Constant
Bit rate : 1 509 kb/s
Channel(s) : 2 channels
Channel layout : L R
Sampling rate : 48.0 kHz
Frame rate : 93.750 FPS (512 SPF)
Bit depth : 16 bits
Compression mode : Lossy
Stream size : 990 MiB (12%)
Title : The.Sender.1998.1080p.BluRay.x264.DTS-FGT
Language : English
Default : Yes
Forced : No

Text
ID : 3
Format : UTF-8
Codec ID : S_TEXT/UTF8
Codec ID/Info : UTF-8 Plain Text
Duration : 1 h 24 min
Bit rate : 31 b/s
Count of elements : 632
Stream size : 19.4 KiB (0%)
Language : English
Default : Yes
Forced : No

Menu
00:00:00.000 : en:Chapter 01
00:07:14.184 : en:Chapter 02
00:15:17.166 : en:Chapter 03
00:22:52.454 : en:Chapter 04
00:30:10.934 : en:Chapter 05
00:41:01.918 : en:Chapter 06
00:46:42.591 : en:Chapter 07
00:53:25.494 : en:Chapter 08
00:59:25.645 : en:Chapter 09
01:08:41.868 : en:Chapter 10
01:14:17.453 : en:Chapter 11
01:23:08.150 : en:Chapter 12





1 个附件 售价 大小 下载 时间

The.Sender.1998.1080p.BluRay.x264.DTS-FGT.torrent 0 金币 42.18K 217 次 9天前

#1楼
发帖时间:2019-11-09 08:48:27   |   回复数:1
911degrees
隐世仙人♂
非常感谢,谢谢分享
9天前 #2楼
游客组