conanlcg
超级版主

[更 早] [日本] [剧情] [BD-1080P] 飞跃巅峰/勇往直前 Gunbuster.The.Movie.1988.1080p.BluRay.x264-BDLiVE 7.95GB

-->

帖子完整标题:飞跃巅峰/勇往直前 Gunbuster.The.Movie.1988.1080p.BluRay.x264-BDLiVE 7.95GB




◎译  名 飞跃巅峰 / 勇往直前(台) / 飞越颠峰(港)
◎片  名 トップをねらえ!
◎年  代 1988
◎产  地 日本
◎类  别 剧情 / 动作 / 科幻 / 动画
◎语  言 日语
◎上映日期 1988-10-07(日本)
◎IMDb评分 7.7/10 from 1209 users
◎IMDb链接 https://www.imdb.com/title/tt0098492
◎豆瓣评分 8.9/10 from 4038 users
◎豆瓣链接 https://movie.douban.com/subject/1300798/
◎集  数 6
◎片  长 30分钟
◎导  演 庵野秀明 Hideaki Anno
◎编  剧 Hiroyuki Yamaga / Toshio Okada
◎主  演 日高法子 Noriko Hidaka
      佐久间玲 Rei Sakuma
      若本规夫 Norio Wakamoto
      大木民夫 Tamio ?ki
      川村万梨阿 Maria Kawamura
      矢尾一树 Kazuki Yao


◎标  签 庵野秀明 | GAINAX | 动画 | 日本 | 日本动画 | 科幻 | OVA | 经典

◎简  介

  2015年12月30日,宇宙探索船Luxion船长,高屋法子的父亲在宇宙中过世。少女高屋法子立志成为像爸爸一样的宇宙驾驶员,并为之奋斗。
  6年后,高屋法子成为了中学生。学校开设了机器人驾驶的课程。三年级的天野和美学姐驾驶技术高超、受人爱戴,被低年级学生称为“姐姐”。新来的教练太田先生来到学校,要挑选2名学生成为宇宙驾驶员。“姐姐”毫无悬念的入选,但缺少机器人驾驶经验的高屋法子竟然也入选了宇宙驾驶员!
  伴随着兴奋与疑惑,高屋法子开始了宇宙驾驶员的生活,但是令她始料未及的是,她的任务是驾驶机器人,与害死父亲的外星生物战斗。关系人类存亡的战斗责任,突然降临在少女高屋法子的身上,她的未来将如何谱写?
Video
ID : 1
Format : AVC
Format/Info : Advanced Video Codec
Format profile : [email protected]
Format settings : CABAC / 4 Ref Frames
Format settings, CABAC : Yes
Format settings, Reference frames : 4 frames
Codec ID : V_MPEG4/ISO/AVC
Duration : 1 h 41 min
Bit rate : 10.6 Mb/s
Width : 1 920 pixels
Height : 1 080 pixels
Display aspect ratio : 16:9
Frame rate mode : Constant
Frame rate : 23.976 (23976/1000) FPS
Color space : YUV
Chroma subsampling : 4:2:0
Bit depth : 8 bits
Scan type : Progressive
Bits/(Pixel*Frame) : 0.213
Stream size : 7.34 GiB (92%)
Writing library : x264 core 78 r1318 fe83a90
Encoding settings : cabac=1 / ref=4 / deblock=1:0:0 / analyse=0x3:0x133 / me=umh / subme=7 / psy=1 / psy_rd=1.0:0.0 / mixed_ref=1 / me_range=16 / chroma_me=1 / trellis=1 / 8x8dct=1 / cqm=0 / deadzone=21,11 / chroma_qp_offset=-2 / threads=6 / nr=0 / decimate=1 / mbaff=0 / constrained_intra=0 / bframes=3 / b_pyramid=0 / b_adapt=1 / b_bias=0 / direct=1 / wpredb=1 / keyint=250 / keyint_min=25 / scenecut=40 / rc_lookahead=40 / rc=2pass / mbtree=1 / bitrate=10584 / ratetol=1.0 / qcomp=0.60 / qpmin=10 / qpmax=51 / qpstep=4 / cplxblur=20.0 / qblur=0.5 / ip_ratio=1.40 / aq=1:1.00
Language : English
Default : Yes
Forced : No

Audio
ID : 2
Format : AC-3
Format/Info : Audio Coding 3
Commercial name : Dolby Digital
Codec ID : A_AC3
Duration : 1 h 41 min
Bit rate mode : Constant
Bit rate : 640 kb/s
Channel(s) : 6 channels
Channel layout : L R C LFE Ls Rs
Sampling rate : 48.0 kHz
Frame rate : 31.250 FPS (1536 SPF)
Bit depth : 16 bits
Compression mode : Lossy
Stream size : 464 MiB (6%)
Language : Japanese
Service kind : Complete Main
Default : Yes
Forced : No

Text
ID : 3
Format : UTF-8
Codec ID : S_TEXT/UTF8
Codec ID/Info : UTF-8 Plain Text
Language : English
Default : Yes
Forced : No





1 个附件 售价 大小 下载 时间

Gunbuster.The.Movie.1988.1080p.BluRay.x264-BDLiVE.torrent 0 金币 40.25K 1757 次 9天前

#1楼
发帖时间:2019-11-09 06:59:45   |   回复数:1
911degrees
隐世仙人♂
非常感谢,谢谢分享
9天前 #2楼
游客组