conanlcg
超级版主

[更 早] [欧美] [喜剧] [WEB-1080P] 总公司 Head.Office.1985.1080p.AMZN.WEBRip.DDP2.0.x264-SiGMA 9.08GB

-->

帖子完整标题:总公司 Head.Office.1985.1080p.AMZN.WEBRip.DDP2.0.x264-SiGMA 9.08GB




◎译  名 总公司
◎片  名 Head Office
◎年  代 1985
◎产  地 美国
◎类  别 喜剧
◎语  言 英语
◎上映日期 1985-12-29
◎IMDb评分 5.5/10 from 1295 users
◎IMDb链接 https://www.imdb.com/title/tt0091183
◎豆瓣评分 0/10 from 0 users
◎豆瓣链接 https://movie.douban.com/subject/3057933/
◎片  长 90 分钟
◎导  演 Ken Finkleman
◎编  剧 Ken Finkleman
◎主  演 Judge Reinhold
      Rick Moranis
      Danny DeVito
      Jane Seymour


◎标  签 黑色幽默 | 英语发音,中文字幕 | 管理

◎简  介

  暂无相关剧情介绍
Video
ID : 1
Format : AVC
Format/Info : Advanced Video Codec
Format profile : [email protected]
Format settings : CABAC / 4 Ref Frames
Format settings, CABAC : Yes
Format settings, Reference frames : 4 frames
Codec ID : V_MPEG4/ISO/AVC
Duration : 1 h 31 min
Bit rate mode : Variable
Bit rate : 14.0 Mb/s
Maximum bit rate : 15.0 Mb/s
Width : 1 920 pixels
Height : 1 080 pixels
Display aspect ratio : 16:9
Frame rate mode : Constant
Frame rate : 29.970 (30000/1001) FPS
Color space : YUV
Chroma subsampling : 4:2:0
Bit depth : 8 bits
Scan type : Progressive
Bits/(Pixel*Frame) : 0.226
Stream size : 8.94 GiB (98%)
Default : Yes
Forced : No
Color range : Limited
Color primaries : BT.709
Transfer characteristics : BT.709
Matrix coefficients : BT.709

Audio
ID : 2
Format : E-AC-3
Format/Info : Enhanced AC-3
Commercial name : Dolby Digital Plus
Codec ID : A_EAC3
Duration : 1 h 31 min
Bit rate mode : Constant
Bit rate : 224 kb/s
Channel(s) : 2 channels
Channel layout : L R
Sampling rate : 48.0 kHz
Frame rate : 31.250 FPS (1536 SPF)
Compression mode : Lossy
Stream size : 146 MiB (2%)
Language : English
Service kind : Complete Main
Default : Yes
Forced : No

Text
ID : 3
Format : UTF-8
Codec ID : S_TEXT/UTF8
Codec ID/Info : UTF-8 Plain Text
Duration : 1 h 30 min
Bit rate : 88 b/s
Count of elements : 2136
Stream size : 58.9 KiB (0%)
Language : English
Default : No
Forced : No





1 个附件 售价 大小 下载 时间

Head.Office.1985.1080p.AMZN.WEBRip.DDP2.0.x264-SiGMA.torrent 0 金币 91.38K 175 次 9天前

#1楼
发帖时间:2019-11-09 05:22:19   |   回复数:1
911degrees
隐世仙人♂
非常感谢,谢谢分享
9天前 #2楼
游客组