conanlcg
超级版主

[2014] [欧美] [其他] [WEB-1080P] 里奇希尔/富丘镇 Rich.Hill.2014.1080p.AMZN.WEBRip.DD5.1.x264-QOQ 5.84GB

-->

帖子完整标题:里奇希尔/富丘镇 Rich.Hill.2014.1080p.AMZN.WEBRip.DD5.1.x264-QOQ 5.84GB




◎译  名 里奇希尔 / 富丘镇 / 富山镇
◎片  名 Rich Hill
◎年  代 2014
◎产  地 美国
◎类  别 纪录片
◎语  言 英语
◎上映日期 2014-01-19(圣丹斯电影节) / 2014-08-01(美国)
◎IMDb评分 7.2/10 from 2124 users
◎IMDb链接 https://www.imdb.com/title/tt2548738
◎豆瓣评分 7.7/10 from 163 users
◎豆瓣链接 https://movie.douban.com/subject/25785120/
◎片  长 91分钟
◎导  演 Tracy Droz Tragos / Andrew Droz Palermo
◎主  演 Alyssa Jewell
      Andrew Jewell
      Elizabeth Jewell


◎标  签 纪录片 | 美国 | 2014 | 青春 | 紀錄片 | 青少年 | Documentary | 2010s

◎简  介

  富丘镇位于美国密苏里州,人口1396,这里很容易被来往于公路间的车辆所忽略。影片聚焦三名富丘镇男孩,尽管小镇与世隔绝,但他们的生活与同龄人并无不同,他们渴望幸福美满的家庭生活,在童年与青春期之间缓慢而剧烈的过渡着。v

◎获奖情况

  第30届圣丹斯电影节(2014)
  评审团大奖 纪录片 特蕾西·德罗兹·巴勒莫 / 安德鲁·德罗兹·巴勒莫
Video
ID : 1
Format : AVC
Format/Info : Advanced Video Codec
Format profile : [email protected]
Format settings : CABAC / 4 Ref Frames
Format settings, CABAC : Yes
Format settings, Reference frames : 4 frames
Codec ID : V_MPEG4/ISO/AVC
Duration : 1 h 32 min
Bit rate : 8 365 kb/s
Width : 1 920 pixels
Height : 1 080 pixels
Display aspect ratio : 16:9
Frame rate mode : Constant
Frame rate : 23.976 (24000/1001) FPS
Color space : YUV
Chroma subsampling : 4:2:0
Bit depth : 8 bits
Scan type : Progressive
Bits/(Pixel*Frame) : 0.168
Stream size : 5.42 GiB (93%)
Default : Yes
Forced : No
Color range : Limited
Color primaries : BT.709
Transfer characteristics : BT.709
Matrix coefficients : BT.709

Audio
ID : 2
Format : E-AC-3
Format/Info : Enhanced AC-3
Commercial name : Dolby Digital Plus
Codec ID : A_EAC3
Duration : 1 h 32 min
Bit rate mode : Constant
Bit rate : 640 kb/s
Channel(s) : 6 channels
Channel layout : L R C LFE Ls Rs
Sampling rate : 48.0 kHz
Frame rate : 31.250 FPS (1536 SPF)
Compression mode : Lossy
Stream size : 425 MiB (7%)
Language : English
Service kind : Complete Main
Default : Yes
Forced : No

Text
ID : 3
Format : UTF-8
Codec ID : S_TEXT/UTF8
Codec ID/Info : UTF-8 Plain Text
Duration : 1 h 31 min
Bit rate : 49 b/s
Count of elements : 1278
Stream size : 33.3 KiB (0%)
Title : SDH
Language : English
Default : No
Forced : No





1 个附件 售价 大小 下载 时间

Rich.Hill.2014.1080p.AMZN.WEBRip.DD5.1.x264-QOQ.torrent 0 金币 58.92K 154 次 9天前

#1楼
发帖时间:2019-11-09 05:05:55   |   回复数:1
911degrees
隐世仙人♂
非常感谢,谢谢分享
9天前 #2楼
游客组