conanlcg
超级版主

[更 早] [欧美] [剧情] [WEB-1080P] 达拉斯猛龙/北达拉斯队 North.Dallas.Forty.1979.1080p.AMZN.WEBRip.DDP2.0.x264-monkee 11.47GB

-->

帖子完整标题:达拉斯猛龙/北达拉斯队 North.Dallas.Forty.1979.1080p.AMZN.WEBRip.DDP2.0.x264-monkee 11.47GB




◎译  名 达拉斯猛龙 / 北达拉斯队
◎片  名 North Dallas Forty
◎年  代 1979
◎产  地 美国
◎类  别 剧情 / 喜剧 / 运动
◎语  言 英语
◎上映日期 1979-08-03
◎IMDb评分 7.0/10 from 4382 users
◎IMDb链接 https://www.imdb.com/title/tt0079640
◎豆瓣评分 0/10 from 0 users
◎豆瓣链接 https://movie.douban.com/subject/1300937/
◎片  长 119 分钟
◎导  演 特德·科特切夫 Ted Kotcheff
◎编  剧 弗兰克·雅布兰斯 Frank Yablans / 南希·多德 Nancy Dowd / Peter Gent
◎主  演 尼克·诺特 Nick Nolte
      马克·戴维斯 Mac Davis
      查尔斯·德恩 Charles Durning
      德欧·哈顿 Dayle Haddon
      博·史文森 Bo Svenson
      史蒂夫·弗罗斯特 Steve Forrest
      G·D·斯普拉德林 G.D. Spradlin
      达布尼·柯尔曼 Dabney Coleman


◎标  签 体育 | 美国 | 1979 | 美国电影 | 麦基推荐 | 《故事》 | TedKotcheff | ...

◎简  介

  故事围绕着一支职业橄榄球队——北达拉斯队展开。全队上下,从队员、教练到相关的工作人员,都认为尼克·诺特是最棒的球员。他不仅技术好,而且聪明伶俐,脑子灵活。可是球队老板却不喜欢他。对他们来说,聪明过人的尼克无疑是一匹“害群之马”。因此,球队总是想找个听话点的人来代替他。可是对于尼克和他的好友迈克·戴维思( Mac Davis)而言,橄榄球是他们生活的全部。他们必须为之尽力拼搏,尽管这会影响到他们在球队的前途。
  影片的最后是球队联盟决赛的四分之一场,北达拉斯队的对手是芝加哥队。在这个紧要关头,虽然尼克仍面临着被开除的危险,而几个对友也在比赛中重伤,但一切都已经变得无关紧要。此刻他最大的愿望就是能全取六分。他真的能做到吗?
Video
ID : 1
Format : AVC
Format/Info : Advanced Video Codec
Format profile : [email protected]
Format settings : CABAC / 4 Ref Frames
Format settings, CABAC : Yes
Format settings, Reference frames : 4 frames
Codec ID : V_MPEG4/ISO/AVC
Duration : 1 h 58 min
Bit rate mode : Variable
Bit rate : 13.7 Mb/s
Maximum bit rate : 15.0 Mb/s
Width : 1 920 pixels
Height : 1 080 pixels
Display aspect ratio : 16:9
Frame rate mode : Constant
Frame rate : 23.976 (24000/1001) FPS
Color space : YUV
Chroma subsampling : 4:2:0
Bit depth : 8 bits
Scan type : Progressive
Bits/(Pixel*Frame) : 0.275
Stream size : 11.3 GiB (98%)
Writing library : x264 core 148 r2623 d5b2374
Encoding settings : cabac=1 / ref=4 / deblock=1:-1:-1 / analyse=0x3:0x133 / me=umh / subme=9 / psy=1 / psy_rd=1.00:0.15 / mixed_ref=1 / me_range=24 / chroma_me=1 / trellis=2 / 8x8dct=1 / cqm=0 / deadzone=21,11 / fast_pskip=1 / chroma_qp_offset=-3 / threads=34 / lookahead_threads=5 / sliced_threads=0 / nr=150 / decimate=1 / interlaced=0 / bluray_compat=0 / constrained_intra=0 / bframes=8 / b_pyramid=2 / b_adapt=2 / b_bias=0 / direct=3 / weightb=1 / open_gop=0 / weightp=2 / keyint=120 / keyint_min=61 / scenecut=0 / intra_refresh=0 / rc_lookahead=120 / rc=crf / mbtree=1 / crf=18.0 / qcomp=0.60 / qpmin=0 / qpmax=69 / qpstep=4 / vbv_maxrate=15000 / vbv_bufsize=31250 / crf_max=0.0 / nal_hrd=vbr / filler=0 / ip_ratio=1.40 / aq=3:1.00
Default : Yes
Forced : No
Color range : Limited
Color primaries : BT.709
Transfer characteristics : BT.709
Matrix coefficients : BT.709

Audio
ID : 2
Format : E-AC-3
Format/Info : Enhanced AC-3
Commercial name : Dolby Digital Plus
Codec ID : A_EAC3
Duration : 1 h 58 min
Bit rate mode : Constant
Bit rate : 224 kb/s
Channel(s) : 2 channels
Channel layout : L R
Sampling rate : 48.0 kHz
Frame rate : 31.250 FPS (1536 SPF)
Compression mode : Lossy
Stream size : 189 MiB (2%)
Language : English
Service kind : Complete Main
Default : Yes
Forced : No

Text #1
ID : 3
Format : UTF-8
Codec ID : S_TEXT/UTF8
Codec ID/Info : UTF-8 Plain Text
Duration : 1 h 55 min
Bit rate : 71 b/s
Count of elements : 1939
Stream size : 60.8 KiB (0%)
Language : English
Default : No
Forced : No

Text #2
ID : 4
Format : UTF-8
Codec ID : S_TEXT/UTF8
Codec ID/Info : UTF-8 Plain Text
Duration : 1 h 55 min
Bit rate : 74 b/s
Count of elements : 2091
Stream size : 63.4 KiB (0%)
Title : SDH
Language : English
Default : No
Forced : No





1 个附件 售价 大小 下载 时间

North.Dallas.Forty.1979.1080p.AMZN.WEBRip.DDP2.0.x264-monkee.torrent 0 金币 57.90K 126 次 9天前

#1楼
发帖时间:2019-11-09 03:47:32   |   回复数:1
911degrees
隐世仙人♂
非常感谢,谢谢分享
9天前 #2楼
游客组