conanlcg
超级版主

[更 早] [欧美] [喜剧] [BD-Remux] 星球访问 Visit.to.a.Small.Planet.1960.1080p.BluRay.REMUX.AVC.DTS-HD.MA.2.0-FGT 15.40

-->

帖子完整标题:星球访问 Visit.to.a.Small.Planet.1960.1080p.BluRay.REMUX.AVC.DTS-HD.MA.2.0-FGT 15.40GB




◎译  名 星球访问
◎片  名 Visit to a Small Planet
◎年  代 1960
◎产  地 美国
◎类  别 喜剧 / 科幻
◎语  言 英语
◎上映日期 1960-02-04
◎IMDb评分 6.1/10 from 1018 users
◎IMDb链接 http://www.imdb.com/title/tt0054446
◎豆瓣评分 0/10 from 0 users
◎豆瓣链接 https://movie.douban.com/subject/3129590/
◎片  长 85 分钟
◎导  演 Norman Taurog
◎编  剧 Gore Vidal / Edmund Beloin
◎主  演 Jerry Lewis
      Joan Blackman
      Earl Holliman
      Fred Clark
      John Williams
      Jerome Cowan


◎标  签 1960 | 美國 | 美国 | 喜剧 | Sci-Fi | JerryLewis | Comedy | BDMV

◎简  介

  Jerry Lewis is Kreton, a childish alien who, against his teacher's will leaves his planet to visit the Earth, and lands in the backyard of a famous television journalist who doesn't believe in U.F.O's and aliens. Wanting to study humans but not able to fully understand them, Kreton makes a mess out of it, generating a lot of comic situations.

◎获奖情况

  第33届奥斯卡金像奖(1961)
  黑白片最佳艺术指导和布景(提名) 萨姆·库默 / Arthur Krams / 沃尔特·H·泰勒 / 哈尔·佩雷拉
Video
ID : 1
Format : AVC
Format/Info : Advanced Video Codec
Format profile : [email protected]
Format settings : CABAC / 4 Ref Frames
Format settings, CABAC : Yes
Format settings, Reference frames : 4 frames
Codec ID : V_MPEG4/ISO/AVC
Duration : 1 h 25 min
Bit rate mode : Variable
Bit rate : 24.0 Mb/s
Maximum bit rate : 35.0 Mb/s
Width : 1 920 pixels
Height : 1 080 pixels
Display aspect ratio : 16:9
Frame rate mode : Constant
Frame rate : 23.976 (24000/1001) FPS
Standard : NTSC
Color space : YUV
Chroma subsampling : 4:2:0
Bit depth : 8 bits
Scan type : Progressive
Bits/(Pixel*Frame) : 0.482
Stream size : 14.3 GiB (93%)
Title : Visit.to.a.Small.Planet.1960.1080p.BluRay.REMUX.AVC.DTS-HD.MA.2.0-FGT
Language : English
Default : No
Forced : No
Color range : Limited
Color primaries : BT.709
Transfer characteristics : BT.709
Matrix coefficients : BT.709

Audio #1
ID : 2
Format : DTS XLL
Format/Info : Digital Theater Systems
Commercial name : DTS-HD Master Audio
Codec ID : A_DTS
Duration : 1 h 25 min
Bit rate mode : Variable
Bit rate : 1 559 kb/s
Channel(s) : 2 channels
Channel layout : L R
Sampling rate : 48.0 kHz
Frame rate : 93.750 FPS (512 SPF)
Bit depth : 16 bits
Compression mode : Lossless
Stream size : 952 MiB (6%)
Title : Visit.to.a.Small.Planet.1960.1080p.BluRay.REMUX.AVC.DTS-HD.MA.2.0-FGT
Language : English
Default : Yes
Forced : No

Audio #2
ID : 3
Format : AC-3
Format/Info : Audio Coding 3
Commercial name : Dolby Digital
Codec ID : A_AC3
Duration : 1 h 25 min
Bit rate mode : Constant
Bit rate : 256 kb/s
Channel(s) : 2 channels
Channel layout : L R
Sampling rate : 48.0 kHz
Frame rate : 31.250 FPS (1536 SPF)
Bit depth : 16 bits
Compression mode : Lossy
Stream size : 156 MiB (1%)
Title : Visit.to.a.Small.Planet.1960.1080p.BluRay.REMUX.AVC.DTS-HD.MA.2.0-FGT
Language : English
Service kind : Complete Main
Default : No
Forced : No

Text
ID : 4
Format : PGS
Muxing mode : zlib
Codec ID : S_HDMV/PGS
Codec ID/Info : Picture based subtitle format used on BDs/HD-DVDs
Duration : 1 h 23 min
Bit rate : 37.8 kb/s
Count of elements : 2468
Stream size : 22.6 MiB (0%)
Title : English-PGS
Language : English
Default : Yes
Forced : No

Menu
00:00:00.000 : en:Chapter 00
00:10:53.527 : en:Chapter 01
00:20:50.666 : en:Chapter 02
00:33:55.366 : en:Chapter 03
00:43:01.412 : en:Chapter 04
00:53:46.473 : en:Chapter 05
01:06:12.802 : en:Chapter 06
01:12:12.828 : en:Chapter 07
01:25:22.784 : en:Chapter 08





1 个附件 售价 大小 下载 时间

Visit.to.a.Small.Planet.1960.1080p.BluRay.REMUX.AVC.DTS-HD.MA.2.0-FGT.torrent 0 金币 77.59K 189 次 26天前

#1楼
发帖时间:2019-09-18 00:59:41   |   回复数:2
liyouchai
隐世仙人♂
谢谢楼主分享资源
26天前 #2楼
911degrees
隐世仙人♂
非常感谢,谢谢分享
25天前 #3楼
游客组