conanlcg
超级版主

[更 早] [欧美] [剧情] [BD-Remux] 匹兹堡/情迷匹兹堡 Pittsburgh.1942.1080p.BluRay.REMUX.AVC.DTS-HD.MA.2.0-FGT 18.22GB

-->

帖子完整标题:匹兹堡/情迷匹兹堡 Pittsburgh.1942.1080p.BluRay.REMUX.AVC.DTS-HD.MA.2.0-FGT 18.22GB




◎译  名 匹兹堡 / 情迷匹兹堡
◎片  名 Pittsburgh
◎年  代 1942
◎产  地 美国
◎类  别 剧情
◎语  言 英语
◎上映日期 1942-12-02
◎IMDb评分 6.6/10 from 956 users
◎IMDb链接 http://www.imdb.com/title/tt0035195
◎豆瓣评分 0/10 from 0 users
◎豆瓣链接 https://movie.douban.com/subject/3915665/
◎片  长 91 分钟
◎导  演 Lewis Seiler
◎主  演 Marlene Dietrich
      John Wayne


◎标  签 MarleneDietrich | 玛琳·黛德丽 | 美国 | Marlene_Dietrich | John_Wayne | 剧情 | 美国电影 | 约翰.韦恩

◎简  介

  暂无相关剧情介绍
Video
ID : 1
Format : AVC
Format/Info : Advanced Video Codec
Format profile : [email protected]
Format settings : CABAC / 4 Ref Frames
Format settings, CABAC : Yes
Format settings, Reference frames : 4 frames
Codec ID : V_MPEG4/ISO/AVC
Duration : 1 h 31 min
Bit rate mode : Variable
Bit rate : 27.0 Mb/s
Maximum bit rate : 38.0 Mb/s
Width : 1 920 pixels
Height : 1 080 pixels
Display aspect ratio : 16:9
Frame rate mode : Constant
Frame rate : 23.976 (24000/1001) FPS
Color space : YUV
Chroma subsampling : 4:2:0
Bit depth : 8 bits
Scan type : Progressive
Bits/(Pixel*Frame) : 0.543
Stream size : 17.2 GiB (94%)
Title : Pittsburgh.1942.1080p.BluRay.REMUX.AVC.DTS-HD.MA.2.0-FGT
Language : English
Default : No
Forced : No

Audio
ID : 2
Format : DTS XLL
Format/Info : Digital Theater Systems
Commercial name : DTS-HD Master Audio
Codec ID : A_DTS
Duration : 1 h 31 min
Bit rate mode : Variable
Bit rate : 1 557 kb/s
Channel(s) : 2 channels
Channel layout : L R
Sampling rate : 48.0 kHz
Frame rate : 93.750 FPS (512 SPF)
Bit depth : 16 bits
Compression mode : Lossless
Stream size : 1 017 MiB (5%)
Title : Pittsburgh.1942.1080p.BluRay.REMUX.AVC.DTS-HD.MA.2.0-FGT
Language : English
Default : Yes
Forced : No

Text
ID : 3
Format : PGS
Muxing mode : zlib
Codec ID : S_HDMV/PGS
Codec ID/Info : Picture based subtitle format used on BDs/HD-DVDs
Duration : 1 h 28 min
Bit rate : 51.2 kb/s
Count of elements : 2747
Stream size : 32.6 MiB (0%)
Title : English-PGS
Language : English
Default : Yes
Forced : No

Menu
00:00:00.000 : en:Chapter 00
00:09:38.828 : en:Chapter 01
00:24:28.467 : en:Chapter 02
00:35:47.895 : en:Chapter 03
00:45:57.254 : en:Chapter 04
00:55:50.889 : en:Chapter 05
01:11:17.439 : en:Chapter 06
01:20:04.216 : en:Chapter 07





1 个附件 售价 大小 下载 时间

Pittsburgh.1942.1080p.BluRay.REMUX.AVC.DTS-HD.MA.2.0-FGT.torrent 0 金币 91.63K 182 次 1月前

#1楼
发帖时间:2019-09-18 00:52:31   |   回复数:2
liyouchai
隐世仙人♂
谢谢楼主分享资源
1月前 #2楼
911degrees
隐世仙人♂
非常感谢,谢谢分享
1月前 #3楼
游客组