conanlcg
超级版主

[更 早] [欧美] [剧情] [BD-Remux] 野风 Reap.the.Wild.Wind.1942.1080p.BluRay.REMUX.AVC.DTS-HD.MA.2.0-FGT 31.49GB

-->

帖子完整标题:野风 Reap.the.Wild.Wind.1942.1080p.BluRay.REMUX.AVC.DTS-HD.MA.2.0-FGT 31.49GB




◎译  名 野风
◎片  名 Reap the Wild Wind
◎年  代 1942
◎产  地 美国
◎类  别 剧情 / 动作 / 冒险
◎语  言 英语
◎上映日期 1942-03-18
◎IMDb评分 6.8/10 from 2660 users
◎IMDb链接 http://www.imdb.com/title/tt0035244
◎豆瓣评分 0/10 from 0 users
◎豆瓣链接 https://movie.douban.com/subject/1300239/
◎片  长 123 分钟
◎导  演 Cecil B. DeMille
◎编  剧 Alan Le May / Charles Bennett
◎主  演 Ray Milland
      John Wayne
      Paulette Goddard


◎标  签 美国 | 塞西尔·B·戴米尔 | 剧情 | 美国电影 | RayMilland | 约翰·韦恩 | JohnWayne | 1942

◎简  介

  暂无相关剧情介绍

◎获奖情况

  第15届奥斯卡金像奖(1943)
  彩色片最佳摄影(提名) Victor Milner / William V. Skall
  最佳特效 William L. Pereira / 高登·詹宁斯 / 路易斯·梅塞科普 / 法乔特·埃多特
  彩色片最佳艺术指导和室内布景(提名) 汉斯·德雷尔 / 罗兰德·安德森 / George Sawley
Video
ID : 1
Format : AVC
Format/Info : Advanced Video Codec
Format profile : [email protected]
Format settings : CABAC / 4 Ref Frames
Format settings, CABAC : Yes
Format settings, Reference frames : 4 frames
Codec ID : V_MPEG4/ISO/AVC
Duration : 2 h 3 min
Bit rate mode : Variable
Bit rate : 34.8 Mb/s
Maximum bit rate : 38.0 Mb/s
Width : 1 920 pixels
Height : 1 080 pixels
Display aspect ratio : 16:9
Frame rate mode : Constant
Frame rate : 23.976 (24000/1001) FPS
Color space : YUV
Chroma subsampling : 4:2:0
Bit depth : 8 bits
Scan type : Progressive
Bits/(Pixel*Frame) : 0.700
Stream size : 30.1 GiB (96%)
Title : Reap.the.Wild.Wind.1942.1080p.BluRay.REMUX.AVC.DTS-HD.MA.2.0-FGT
Language : English
Default : No
Forced : No

Audio
ID : 2
Format : DTS XLL
Format/Info : Digital Theater Systems
Commercial name : DTS-HD Master Audio
Codec ID : A_DTS
Duration : 2 h 3 min
Bit rate mode : Variable
Bit rate : 1 557 kb/s
Channel(s) : 2 channels
Channel layout : L R
Sampling rate : 48.0 kHz
Frame rate : 93.750 FPS (512 SPF)
Bit depth : 16 bits
Compression mode : Lossless
Stream size : 1.35 GiB (4%)
Title : Reap.the.Wild.Wind.1942.1080p.BluRay.REMUX.AVC.DTS-HD.MA.2.0-FGT
Language : English
Default : Yes
Forced : No

Text
ID : 3
Format : PGS
Muxing mode : zlib
Codec ID : S_HDMV/PGS
Codec ID/Info : Picture based subtitle format used on BDs/HD-DVDs
Duration : 2 h 0 min
Bit rate : 38.9 kb/s
Count of elements : 2504
Stream size : 33.6 MiB (0%)
Title : English-PGS
Language : English
Default : Yes
Forced : No

Menu
00:00:00.000 : en:Chapter 00
00:07:44.255 : en:Chapter 01
00:21:13.230 : en:Chapter 02
00:38:38.607 : en:Chapter 03
00:58:16.743 : en:Chapter 04
01:16:04.601 : en:Chapter 05
01:30:08.653 : en:Chapter 06
01:46:49.653 : en:Chapter 07





1 个附件 售价 大小 下载 时间

Reap.the.Wild.Wind.1942.1080p.BluRay.REMUX.AVC.DTS-HD.MA.2.0-FGT.torrent 0 金币 79.28K 217 次 1月前

#1楼
发帖时间:2019-09-18 00:50:30   |   回复数:2
liyouchai
隐世仙人♂
谢谢楼主分享资源
1月前 #2楼
911degrees
隐世仙人♂
非常感谢,谢谢分享
1月前 #3楼
游客组