conanlcg
超级版主

[2016] [欧美] [喜剧] [WEB-1080P] 唐纳德·特朗普的交易艺术:大电影 Donald.Trumps.The.Art.Of.The.Deal.The.Movie.2016.1080p.AMZN.WEB

-->

帖子完整标题:唐纳德·特朗普的交易艺术:大电影 Donald.Trumps.The.Art.Of.The.Deal.The.Movie.2016.1080p.AMZN.WEBRip.DD5.1.x264-QOQ 4.64GB




◎译  名 唐纳德·特朗普的交易艺术:大电影 / Donald Trump's The Art of the Deal: The Movie
◎片  名 Donald Trump's The Art of the Deal: The Movie
◎年  代 2016
◎产  地 美国
◎类  别 喜剧
◎语  言 英语
◎上映日期 2016-02-10(美国)
◎IMDb评分 5.9/10 from 3513 users
◎IMDb链接 http://www.imdb.com/title/tt5456120
◎豆瓣评分 6.6/10 from 148 users
◎豆瓣链接 https://movie.douban.com/subject/26725409/
◎片  长 50分钟
◎导  演 杰米·科纳尔 Jeremy Konner
◎编  剧 Joe Randazzo
◎主  演 约翰尼·德普 Johnny Depp


◎标  签 美国 | 喜剧 | JohnnyDepp | 约翰尼德普 | 美式幽默 | 搞笑 | 约翰尼·德普 | 唐床破

◎简  介

  Donald Trump has it all. Money, power, respect, and an Eastern European bride. But all his success didn’t come for nothing. First, he inherited millions of dollars from his rich father, then he grabbed New York City by the balls. Now you can learn the art of negotiation, real estate, and high-quality brass in this illuminating made-for-TV special feature, Funny Or Die Presents Donald Trump’s The Art Of The Deal: The Movie.
Video
ID : 1
Format : AVC
Format/Info : Advanced Video Codec
Format profile : [email protected]
Format settings : CABAC / 4 Ref Frames
Format settings, CABAC : Yes
Format settings, Reference frames : 4 frames
Codec ID : V_MPEG4/ISO/AVC
Duration : 50 min 13 s
Bit rate mode : Variable
Bit rate : 12.6 Mb/s
Maximum bit rate : 15.0 Mb/s
Width : 1 920 pixels
Height : 1 080 pixels
Display aspect ratio : 16:9
Frame rate mode : Constant
Frame rate : 23.976 (24000/1001) FPS
Color space : YUV
Chroma subsampling : 4:2:0
Bit depth : 8 bits
Scan type : Progressive
Bits/(Pixel*Frame) : 0.253
Stream size : 4.42 GiB (95%)
Default : Yes
Forced : No
Color range : Limited
Color primaries : BT.709
Transfer characteristics : BT.709
Matrix coefficients : BT.709

Audio
ID : 2
Format : E-AC-3
Format/Info : Enhanced AC-3
Commercial name : Dolby Digital Plus
Codec ID : A_EAC3
Duration : 50 min 13 s
Bit rate mode : Constant
Bit rate : 640 kb/s
Channel(s) : 6 channels
Channel layout : L R C LFE Ls Rs
Sampling rate : 48.0 kHz
Frame rate : 31.250 FPS (1536 SPF)
Compression mode : Lossy
Stream size : 230 MiB (5%)
Language : English
Service kind : Complete Main
Default : Yes
Forced : No

Text #1
ID : 3
Format : UTF-8
Codec ID : S_TEXT/UTF8
Codec ID/Info : UTF-8 Plain Text
Duration : 49 min 8 s
Bit rate : 98 b/s
Count of elements : 1025
Stream size : 35.3 KiB (0%)
Language : English
Default : No
Forced : No

Text #2
ID : 4
Format : UTF-8
Codec ID : S_TEXT/UTF8
Codec ID/Info : UTF-8 Plain Text
Duration : 49 min 31 s
Bit rate : 102 b/s
Count of elements : 1127
Stream size : 37.3 KiB (0%)
Title : SDH
Language : English
Default : No
Forced : No





1 个附件 售价 大小 下载 时间

Donald.Trumps.The.Art.Of.The.Deal.The.Movie.2016.1080p.AMZN.WEBRip.DD5.1.x264-QOQ.torrent 0 金币 47.01K 399 次 26天前

#1楼
发帖时间:2019-09-17 22:36:22   |   回复数:2
liyouchai
隐世仙人♂
谢谢楼主分享资源
26天前 #2楼
911degrees
隐世仙人♂
非常感谢,谢谢分享
25天前 #3楼
游客组