conanlcg
超级版主

[2014] [欧美] [其他] [WEB-1080P] 考证:出埃及记 Patterns.of.Evidence.Exodus.2014.1080p.NF.WEBRip.DDP5.1.x264-TrollHD 6.5

-->

帖子完整标题:考证:出埃及记 Patterns.of.Evidence.Exodus.2014.1080p.NF.WEBRip.DDP5.1.x264-TrollHD 6.50GB




◎译  名 考证:出埃及记
◎片  名 Patterns of Evidence: The Exodus
◎年  代 2014
◎产  地 美国
◎类  别 纪录片 / 历史 / 奇幻
◎语  言 英语
◎上映日期 2015-01-19
◎IMDb评分 7.3/10 from 908 users
◎IMDb链接 http://www.imdb.com/title/tt3464018
◎豆瓣评分 0/10 from 0 users
◎豆瓣链接 https://movie.douban.com/subject/26317682/
◎导  演 Tim Mahoney
◎编  剧 Steve Law, Tim Mahoney
◎主  演 Charles Aling
      Manfred Bietak
      John Bimson


◎标  签 纪录片 | 古埃及 | 紀錄片 | Netflix | 美國 | shanghai | 2017片單 | 美国

◎简  介

  What is the validity of history found in the Bible? Is it fact or fiction? What does the hard evidence really have to say about the foundational story of the Old Testament: the Exodus out of Egypt? An in-depth investigation by documentary filmmaker Tim Mahoney searches for answers to these questions amid startling new finds that may change traditional views of history and the Bible.
Video
ID : 1
Format : AVC
Format/Info : Advanced Video Codec
Format profile : [email protected]
Format settings : CABAC / 3 Ref Frames
Format settings, CABAC : Yes
Format settings, Reference frames : 3 frames
Codec ID : V_MPEG4/ISO/AVC
Duration : 1 h 58 min
Bit rate mode : Variable
Bit rate : 7 500 kb/s
Maximum bit rate : 11.2 Mb/s
Width : 1 920 pixels
Height : 1 080 pixels
Display aspect ratio : 16:9
Frame rate mode : Constant
Frame rate : 29.970 (30000/1001) FPS
Color space : YUV
Chroma subsampling : 4:2:0
Bit depth : 8 bits
Scan type : Progressive
Bits/(Pixel*Frame) : 0.121
Stream size : 6.18 GiB (95%)
Writing library : x264 core 118
Encoding settings : cabac=1 / ref=3 / deblock=1:0:0 / analyse=0x1:0x111 / me=umh / subme=10 / psy=1 / psy_rd=1.00:0.00 / mixed_ref=1 / me_range=24 / chroma_me=1 / trellis=2 / 8x8dct=0 / cqm=0 / deadzone=21,11 / fast_pskip=1 / chroma_qp_offset=-2 / threads=8 / sliced_threads=0 / nr=0 / decimate=1 / interlaced=0 / bluray_compat=0 / constrained_intra=0 / bframes=2 / b_pyramid=0 / b_adapt=2 / b_bias=0 / direct=3 / weightb=1 / open_gop=0 / weightp=2 / keyint=60 / keyint_min=31 / scenecut=0 / intra_refresh=0 / rc_lookahead=0 / rc=2pass / mbtree=1 / bitrate=7500 / ratetol=1.0 / qcomp=0.50 / qpmin=6 / qpmax=51 / qpstep=4 / cplxblur=20.0 / qblur=0.5 / vbv_maxrate=11250 / vbv_bufsize=15000 / nal_hrd=vbr / ip_ratio=1.40 / aq=1:1.00
Default : Yes
Forced : No

Audio
ID : 2
Format : AC-3
Format/Info : Audio Coding 3
Commercial name : Dolby Digital
Codec ID : A_AC3
Duration : 1 h 58 min
Bit rate mode : Constant
Bit rate : 384 kb/s
Channel(s) : 6 channels
Channel layout : L R C LFE Ls Rs
Sampling rate : 48.0 kHz
Frame rate : 31.250 FPS (1536 SPF)
Bit depth : 16 bits
Compression mode : Lossy
Stream size : 326 MiB (5%)
Language : English
Service kind : Complete Main
Default : Yes
Forced : No

Text
ID : 3
Format : UTF-8
Codec ID : S_TEXT/UTF8
Codec ID/Info : UTF-8 Plain Text
Duration : 1 h 56 min
Bit rate : 99 b/s
Count of elements : 3900
Stream size : 84.5 KiB (0%)
Title : SDH
Language : English
Default : No
Forced : No





1 个附件 售价 大小 下载 时间

Patterns.of.Evidence.Exodus.2014.1080p.NF.WEBRip.DDP5.1.x264-TrollHD.torrent 0 金币 33.04K 441 次 26天前

#1楼
发帖时间:2019-09-17 22:28:49   |   回复数:2
liyouchai
隐世仙人♂
谢谢楼主分享资源
26天前 #2楼
911degrees
隐世仙人♂
非常感谢,谢谢分享
25天前 #3楼
游客组