conanlcg
超级版主

[2019] [其他] [动作] [BD-4K] 安娜 Anna.2019.2160p.BluRay.x264.8bit.SDR.DTS-HD.MA.TrueHD.7.1.Atmos-SWTYBLZ 28.77

-->

帖子完整标题:安娜 Anna.2019.2160p.BluRay.x264.8bit.SDR.DTS-HD.MA.TrueHD.7.1.Atmos-SWTYBLZ 28.77GB




◎译  名 安娜
◎片  名 Anna
◎年  代 2019
◎产  地 法国 / 美国
◎类  别 动作 / 惊悚
◎语  言 英语 / 俄语
◎上映日期 2019-06-21(美国) / 2019-07-10(法国)
◎IMDb评分 6.6/10 from 8495 users
◎IMDb链接 http://www.imdb.com/title/tt7456310
◎豆瓣评分 7.6/10 from 979 users
◎豆瓣链接 https://movie.douban.com/subject/27166976/
◎片  长 119分钟
◎导  演 吕克·贝松 Luc Besson
◎编  剧 吕克·贝松 Luc Besson
◎主  演 萨莎·露丝 Sasha Luss
      海伦·米伦 Helen Mirren
      卢克·伊万斯 Luke Evans
      基里安·墨菲 Cillian Murphy
      亚历山大·佩特罗夫 Alexander Petrov
      艾力克·高敦 Eric Godon
      伊凡·弗拉内克 Ivan Franek
      Jean-Baptiste Puech
      阿德里安·坎恩 Adrian Can
      安德鲁·霍华德 Andrew Howard
      保利妮·霍劳 Pauline Hoarau
      雷吉尔·库迪乌 Réginal Kudiwu
      耶斯·利奥丹 Jess Liaudin
      鲁伯特·韦恩-詹姆斯 Rupert Wynne-James
      埃文特·斯特朗 Avant Strangel
      詹·奥利弗·施罗德 Jan Oliver Schroeder
      克里斯多夫·泰克 Christophe Tek
      詹姆斯·乔因特 James Joint
      谢尔盖·巴切乌尔斯基 Sergey Bachurskiy
      扎克·安德里亚纳索洛 Zac Andrianasolo
      莱拉·阿波瓦 Lera Abova
      Nikita Pavlenko
      Anna Krippa
      Aleksey Maslodudov
      Alison Wheeler
      Travis Kerschen


◎标  签 吕克·贝松 | 动作 | 法国 | 2019 | 悬疑 | 电影 | 惊悚 | 限制级

◎简  介

  故事聚焦神秘女杀手安娜的成长及执行各种暗杀任务的经历,在美丽的外表下,安娜拥有聪明绝顶的头脑和强大的战斗技巧,是世界上最恐怖的刺客之一,她游走于黑白两道,只要被锁定的目标,从不失手。
Video
ID : 1
Format : AVC
Format/Info : Advanced Video Codec
Format profile : [email protected]
Format settings : CABAC / 5 Ref Frames
Format settings, CABAC : Yes
Format settings, Reference frames : 5 frames
Codec ID : V_MPEG4/ISO/AVC
Duration : 1 h 58 min
Bit rate : 25.9 Mb/s
Width : 3 840 pixels
Height : 1 608 pixels
Display aspect ratio : 2.40:1
Frame rate mode : Constant
Frame rate : 23.976 (24000/1001) FPS
Color space : YUV
Chroma subsampling : 4:2:0
Bit depth : 8 bits
Scan type : Progressive
Bits/(Pixel*Frame) : 0.175
Stream size : 21.5 GiB (75%)
Title : Anna.2019.2160p.BluRay.x264.8bit.SDR.DTS-HD.MA.TrueHD.7.1.Atmos-SWTYBLZ
Writing library : x264 core 157 r2935 545de2f
Encoding settings : cabac=1 / ref=5 / deblock=1:-1:-1 / analyse=0x3:0x113 / me=umh / subme=10 / psy=1 / psy_rd=1.00:0.15 / mixed_ref=1 / me_range=48 / chroma_me=1 / trellis=2 / 8x8dct=1 / cqm=0 / deadzone=21,11 / fast_pskip=1 / chroma_qp_offset=-3 / threads=48 / lookahead_threads=4 / sliced_threads=0 / nr=0 / decimate=0 / interlaced=0 / bluray_compat=0 / constrained_intra=0 / bframes=3 / b_pyramid=2 / b_adapt=2 / b_bias=0 / direct=3 / weightb=1 / open_gop=0 / weightp=2 / keyint=250 / keyint_min=23 / scenecut=40 / intra_refresh=0 / rc_lookahead=50 / rc=crf / mbtree=1 / crf=18.0 / qcomp=0.60 / qpmin=0 / qpmax=69 / qpstep=4 / ip_ratio=1.40 / aq=1:1.00
Default : Yes
Forced : No

Audio #1
ID : 2
Format : MLP FBA 16-ch
Format/Info : Meridian Lossless Packing FBA with 16-channel presentation
Commercial name : Dolby TrueHD with Dolby Atmos
Codec ID : A_TRUEHD
Duration : 1 h 58 min
Bit rate mode : Variable
Bit rate : 3 616 kb/s
Maximum bit rate : 6 441 kb/s
Channel(s) : 8 channels
Channel layout : L R C LFE Ls Rs Lb Rb
Sampling rate : 48.0 kHz
Frame rate : 1 200.000 FPS (40 SPF)
Compression mode : Lossless
Stream size : 3.01 GiB (10%)
Title : Anna.2019.2160p.BluRay.x264.8bit.SDR.DTS-HD.MA.TrueHD.7.1.Atmos-SWTYBLZ
Language : English
Default : Yes
Forced : No
Number of dynamic objects : 15
Bed channel count : 1 channel
Bed channel configuration : LFE

Audio #2
ID : 3
Format : DTS XLL
Format/Info : Digital Theater Systems
Commercial name : DTS-HD Master Audio
Codec ID : A_DTS
Duration : 1 h 58 min
Bit rate mode : Variable
Bit rate : 4 224 kb/s
Channel(s) : 8 channels
Channel layout : C L R LFE Lb Rb Lss Rss
Sampling rate : 48.0 kHz
Frame rate : 93.750 FPS (512 SPF)
Bit depth : 24 bits
Compression mode : Lossless
Stream size : 3.51 GiB (12%)
Title : Anna.2019.2160p.BluRay.x264.8bit.SDR.DTS-HD.MA.TrueHD.7.1.Atmos-SWTYBLZ
Language : English
Default : No
Forced : No

Audio #3
ID : 4
Format : AC-3
Format/Info : Audio Coding 3
Commercial name : Dolby Digital
Codec ID : A_AC3
Duration : 1 h 58 min
Bit rate mode : Constant
Bit rate : 640 kb/s
Channel(s) : 6 channels
Channel layout : L R C LFE Ls Rs
Sampling rate : 48.0 kHz
Frame rate : 31.250 FPS (1536 SPF)
Bit depth : 16 bits
Compression mode : Lossy
Stream size : 545 MiB (2%)
Title : Anna.2019.2160p.BluRay.x264.8bit.SDR.DTS-HD.MA.TrueHD.7.1.Atmos-SWTYBLZ
Language : English
Service kind : Complete Main
Default : No
Forced : No

Text #1
ID : 5
Format : UTF-8
Codec ID : S_TEXT/UTF8
Codec ID/Info : UTF-8 Plain Text
Duration : 1 h 52 min
Bit rate : 46 b/s
Count of elements : 1192
Stream size : 38.3 KiB (0%)
Title : English-SRT
Language : English
Default : Yes
Forced : No

Text #2
ID : 6
Format : PGS
Muxing mode : zlib
Codec ID : S_HDMV/PGS
Codec ID/Info : Picture based subtitle format used on BDs/HD-DVDs
Duration : 1 h 52 min
Bit rate : 38.3 kb/s
Count of elements : 2967
Stream size : 30.8 MiB (0%)
Title : English-SDH-PGS
Language : English
Default : No
Forced : No

Text #3
ID : 7
Format : PGS
Muxing mode : zlib
Codec ID : S_HDMV/PGS
Codec ID/Info : Picture based subtitle format used on BDs/HD-DVDs
Duration : 1 h 52 min
Bit rate : 32.6 kb/s
Count of elements : 2370
Stream size : 26.3 MiB (0%)
Title : Spanish-PGS
Language : Spanish
Default : No
Forced : No

Menu
00:00:00.000 : en:Chapter 01
00:06:14.291 : en:Chapter 02
00:16:42.210 : en:Chapter 03
00:21:09.185 : en:Chapter 04
00:31:16.708 : en:Chapter 05
00:35:25.832 : en:Chapter 06
00:45:57.338 : en:Chapter 07
00:53:43.262 : en:Chapter 08
01:00:52.732 : en:Chapter 09
01:08:39.907 : en:Chapter 10
01:14:24.085 : en:Chapter 11
01:24:15.133 : en:Chapter 12
01:28:36.520 : en:Chapter 13
01:36:36.582 : en:Chapter 14
01:46:36.390 : en:Chapter 15
01:51:04.783 : en:Chapter 16





1 个附件 售价 大小 下载 时间

Anna.2019.2160p.BluRay.x264.8bit.SDR.DTS-HD.MA.TrueHD.7.1.Atmos-SWTYBLZ.torrent 0 金币 72.55K 1001 次 1月前

#1楼
发帖时间:2019-09-17 21:56:54   |   回复数:3
liyouchai
隐世仙人♂
谢谢楼主分享资源
1月前 #2楼
911degrees
隐世仙人♂
非常感谢,谢谢分享
1月前 #3楼
jokingcheung
一代宗师
谢谢分享
1月前 #4楼
游客组