conanlcg
超级版主

[2019] [其他] [喜剧] [BD-720P] 无上婚宴 Top.End.Wedding.2019.720p.BluRay.x264-PFa 4.36GB

-->

帖子完整标题:无上婚宴 Top.End.Wedding.2019.720p.BluRay.x264-PFa 4.36GB




◎译  名 无上婚宴 / Top-End Wedding
◎片  名 Top End Wedding
◎年  代 2019
◎产  地 澳大利亚
◎类  别 喜剧
◎语  言 英语
◎上映日期 2019-01-30(圣丹斯电影节)
◎IMDb评分 7.1/10 from 385 users
◎IMDb链接 http://www.imdb.com/title/tt7555072
◎豆瓣评分 0/10 from 0 users
◎豆瓣链接 https://movie.douban.com/subject/30390696/
◎导  演 韦恩·布莱尔 Wayne Blair
◎编  剧 Miranda Tapsell / Joshua Tyler
◎主  演 格威利姆·李 Gwilym Lee
      凯瑞·福克斯 Kerry Fox
      Miranda Tapsell
      Huw Higginson
      Travis Jeffery
      Shari Sebbens
      Ursula Yovich
      Elaine Crombie
      Matt Crook
      Atmiya Patel


◎标  签 澳洲 | 喜剧 | cinema | Cinema_2019 | 2019Sundance | 2019

◎简  介

  暂无相关剧情介绍
Video
ID : 1
Format : AVC
Format/Info : Advanced Video Codec
Format profile : [email protected]
Format settings : CABAC / 5 Ref Frames
Format settings, CABAC : Yes
Format settings, Reference frames : 5 frames
Codec ID : V_MPEG4/ISO/AVC
Duration : 1 h 41 min
Bit rate : 4 614 kb/s
Width : 1 280 pixels
Height : 528 pixels
Display aspect ratio : 2.40:1
Frame rate mode : Constant
Frame rate : 24.000 FPS
Color space : YUV
Chroma subsampling : 4:2:0
Bit depth : 8 bits
Scan type : Progressive
Bits/(Pixel*Frame) : 0.284
Stream size : 3.28 GiB (75%)
Writing library : x264 core 157 r2969 d4099dd
Encoding settings : cabac=1 / ref=5 / deblock=1:0:0 / analyse=0x3:0x133 / me=umh / subme=8 / psy=1 / psy_rd=1.00:0.00 / mixed_ref=1 / me_range=16 / chroma_me=1 / trellis=1 / 8x8dct=1 / cqm=0 / deadzone=21,11 / fast_pskip=0 / chroma_qp_offset=-2 / threads=12 / lookahead_threads=2 / sliced_threads=0 / nr=0 / decimate=1 / interlaced=0 / bluray_compat=0 / constrained_intra=0 / bframes=3 / b_pyramid=2 / b_adapt=1 / b_bias=0 / direct=1 / weightb=1 / open_gop=0 / weightp=2 / keyint=250 / keyint_min=24 / scenecut=40 / intra_refresh=0 / rc_lookahead=40 / rc=2pass / mbtree=1 / bitrate=4614 / ratetol=1.0 / qcomp=0.60 / qpmin=0 / qpmax=69 / qpstep=4 / cplxblur=20.0 / qblur=0.5 / ip_ratio=1.40 / aq=1:1.00
Language : English
Default : Yes
Forced : No

Audio
ID : 2
Format : DTS
Format/Info : Digital Theater Systems
Codec ID : A_DTS
Duration : 1 h 41 min
Bit rate mode : Constant
Bit rate : 1 509 kb/s
Channel(s) : 6 channels
Channel layout : C L R Ls Rs LFE
Sampling rate : 48.0 kHz
Frame rate : 93.750 FPS (512 SPF)
Bit depth : 16 bits
Compression mode : Lossy
Stream size : 1.07 GiB (25%)
Default : Yes
Forced : No





1 个附件 售价 大小 下载 时间

Top.End.Wedding.2019.720p.BluRay.x264-PFa.torrent 0 金币 44.21K 273 次 3月前

#1楼
发帖时间:2019-08-14 21:09:49   |   回复数:2
liyouchai
隐世仙人♂
谢谢楼主分享资源
3月前 #2楼
911degrees
隐世仙人♂
非常感谢,谢谢分享
3月前 #3楼
游客组