conanlcg
超级版主

[更 早] [日本] [动作] [BD-1080P] 战龙哥斯拉之怪兽总进击 Destroy.All.Monsters.1968.1080p.BluRay.x264-SADPANDA 7.65GB

-->

帖子完整标题:战龙哥斯拉之怪兽总进击 Destroy.All.Monsters.1968.1080p.BluRay.x264-SADPANDA 7.65GB




◎译  名 战龙哥斯拉之怪兽总进击 / Destroy All Monsters / Kaijū Sōshingeki
◎片  名 怪獣総進撃
◎年  代 1968
◎产  地 日本
◎类  别 动作 / 科幻 / 惊悚 / 恐怖 / 战争
◎语  言 日语
◎上映日期 1968-08-01
◎IMDb评分 6.6/10 from 4296 users
◎IMDb链接 http://www.imdb.com/title/tt0063172
◎豆瓣评分 6.3/10 from 156 users
◎豆瓣链接 https://movie.douban.com/subject/2059299/
◎片  长 Germany: 89 分钟
◎导  演 本多猪四郎
◎编  剧 馬淵薫 / 本多猪四郎
◎主  演 久保明 Akira Kubo
      田崎润 Jun Tazaki
      小林夕岐子 Yukiko Kobayashi
      土屋嘉男 Yoshio Tsuchiya
      Ky?ko Ai
      Andrew Hughes
      当银长太郎 Ch?tar? T?gin
      田岛义文 Yoshifumi Tajima
      佐原健二 Kenji Sahara
      伊藤久哉 Hisaya Ito
      Yoshio Katsuda
      大川平八郎 Heihachir? ?kawa
      泽村伊纪雄 Ikio Sawamura
      佐田丰 Yutaka Sada
      Hiroshi Okada


◎标  签 日本 | 科幻 | 哥斯拉 | 本多猪四郎 | 电影 | 日本电影 | 1968 | 特摄

◎简  介

  Female aliens take control of Earth's monsters and begin using them to destroy the human race.
Video
ID : 1
Format : AVC
Format/Info : Advanced Video Codec
Format profile : [email protected]
Format settings : CABAC / 5 Ref Frames
Format settings, CABAC : Yes
Format settings, Reference frames : 5 frames
Codec ID : V_MPEG4/ISO/AVC
Duration : 1 h 29 min
Bit rate : 11.4 Mb/s
Width : 1 920 pixels
Height : 792 pixels
Display aspect ratio : 2.40:1
Frame rate mode : Constant
Frame rate : 23.976 (24000/1001) FPS
Color space : YUV
Chroma subsampling : 4:2:0
Bit depth : 8 bits
Scan type : Progressive
Bits/(Pixel*Frame) : 0.312
Stream size : 7.06 GiB (92%)
Writing library : x264 core 148 r2744 b97ae06
Encoding settings : cabac=1 / ref=5 / deblock=1:-3:-3 / analyse=0x3:0x113 / me=umh / subme=8 / psy=1 / psy_rd=1.00:0.25 / mixed_ref=1 / me_range=24 / chroma_me=1 / trellis=1 / 8x8dct=1 / cqm=0 / deadzone=21,11 / fast_pskip=1 / chroma_qp_offset=-4 / threads=24 / lookahead_threads=4 / sliced_threads=0 / nr=0 / decimate=1 / interlaced=0 / bluray_compat=0 / constrained_intra=0 / bframes=3 / b_pyramid=2 / b_adapt=1 / b_bias=0 / direct=3 / weightb=1 / open_gop=0 / weightp=2 / keyint=240 / keyint_min=24 / scenecut=40 / intra_refresh=0 / rc_lookahead=50 / rc=2pass / mbtree=1 / bitrate=11363 / ratetol=1.0 / qcomp=0.60 / qpmin=0 / qpmax=69 / qpstep=4 / cplxblur=20.0 / qblur=0.5 / ip_ratio=1.40 / aq=1:0.75
Default : Yes
Forced : No

Audio #1
ID : 2
Format : FLAC
Format/Info : Free Lossless Audio Codec
Codec ID : A_FLAC
Duration : 1 h 29 min
Bit rate mode : Variable
Bit rate : 575 kb/s
Channel(s) : 2 channels
Channel layout : L R
Sampling rate : 48.0 kHz
Frame rate : 11.719 FPS (4096 SPF)
Bit depth : 16 bits
Compression mode : Lossless
Stream size : 366 MiB (5%)
Writing library : libFLAC 1.2.1 (UTC 2007-09-17)
Language : Japanese
Default : Yes
Forced : No

Audio #2
ID : 3
Format : FLAC
Format/Info : Free Lossless Audio Codec
Codec ID : A_FLAC
Duration : 1 h 28 min
Bit rate mode : Variable
Bit rate : 358 kb/s
Channel(s) : 2 channels
Channel layout : L R
Sampling rate : 48.0 kHz
Frame rate : 11.719 FPS (4096 SPF)
Bit depth : 16 bits
Compression mode : Lossless
Stream size : 228 MiB (3%)
Writing library : libFLAC 1.2.1 (UTC 2007-09-17)
Language : English
Default : No
Forced : No

Text #1
ID : 4
Format : UTF-8
Codec ID : S_TEXT/UTF8
Codec ID/Info : UTF-8 Plain Text
Duration : 1 h 28 min
Bit rate : 35 b/s
Count of elements : 739
Stream size : 23.2 KiB (0%)
Title : Full subtitles for Japanese audio
Language : English
Default : Yes
Forced : No

Text #2
ID : 5
Format : UTF-8
Codec ID : S_TEXT/UTF8
Codec ID/Info : UTF-8 Plain Text
Duration : 1 h 28 min
Bit rate : 0 b/s
Count of elements : 4
Stream size : 160 Bytes (0%)
Title : Forced subtitles for English audio
Language : English
Default : No
Forced : No

Menu
00:00:00.000 : en:00:00:00.000
00:09:18.600 : en:00:09:18.600
00:17:48.818 : en:00:17:48.818
00:25:28.193 : en:00:25:28.193
00:34:13.927 : en:00:34:13.927
00:44:55.026 : en:00:44:55.026
00:55:56.562 : en:00:55:56.562
01:06:00.415 : en:01:06:00.415
01:13:38.414 : en:01:13:38.414
01:20:52.264 : en:01:20:52.264





1 个附件 售价 大小 下载 时间

Destroy.All.Monsters.1968.1080p.BluRay.x264-SADPANDA.torrent 0 金币 38.77K 896 次 3月前

#1楼
发帖时间:2019-08-14 19:24:52   |   回复数:3
liyouchai
隐世仙人♂
谢谢楼主分享资源
3月前 #2楼
911degrees
隐世仙人♂
非常感谢,谢谢分享
3月前 #3楼
kola13
一派掌门
感谢分享
3月前 #4楼
游客组