conanlcg
超级版主

[更 早] [日本] [剧情] [BD-1080P] 哥斯拉VS碧奥兰蒂 Godzilla.VS.Biollante.1989.1080p.BluRay.x264-SADPANDA 7.94GB

-->

帖子完整标题:哥斯拉VS碧奥兰蒂 Godzilla.VS.Biollante.1989.1080p.BluRay.x264-SADPANDA 7.94GB




◎译  名 哥斯拉VS碧奥兰蒂 / Gojira Vs Biorante / Gojira tai Biorante / 哥斯拉之真假对决
◎片  名 ゴジラVSビオランテ
◎年  代 1989
◎产  地 日本
◎类  别 剧情 / 动作 / 科幻 / 恐怖
◎语  言 日语 / 英语
◎上映日期 1989-12-16
◎IMDb评分 6.6/10 from 4508 users
◎IMDb链接 http://www.imdb.com/title/tt0097444
◎豆瓣评分 6.8/10 from 265 users
◎豆瓣链接 https://movie.douban.com/subject/1808434/
◎片  长 105分钟
◎导  演 大森一树
◎编  剧 大森一樹
◎主  演 三田村邦彦
      田中好子
      小高恵美


◎标  签 日本 | 科幻 | 怪兽 | 哥斯拉 | 特摄 | 日本电影 | 电影 | 1989

◎简  介

  相机博士痛失爱女红里香,由于他爱女情切,企图把玫瑰花、哥斯拉跟女儿的细胞互相结合,并希望能延续女儿的性命,但却酿成大祸。及後博士发现哥斯拉的细胞能吸食幅射能量,于是想出个以毒攻毒的方法,就是把处理过的反核细菌射进哥斯拉的体内,并企图消灭牠。
Video
ID : 1
Format : AVC
Format/Info : Advanced Video Codec
Format profile : [email protected]
Format settings : CABAC / 4 Ref Frames
Format settings, CABAC : Yes
Format settings, Reference frames : 4 frames
Codec ID : V_MPEG4/ISO/AVC
Duration : 1 h 44 min
Bit rate : 9 073 kb/s
Width : 1 920 pixels
Height : 1 040 pixels
Display aspect ratio : 1.85:1
Frame rate mode : Constant
Frame rate : 23.976 (24000/1001) FPS
Color space : YUV
Chroma subsampling : 4:2:0
Bit depth : 8 bits
Scan type : Progressive
Bits/(Pixel*Frame) : 0.190
Stream size : 6.65 GiB (84%)
Writing library : x264 core 146 r2538 121396c
Encoding settings : cabac=1 / ref=4 / deblock=1:0:0 / analyse=0x3:0x133 / me=umh / subme=8 / psy=1 / psy_rd=1.00:0.00 / mixed_ref=1 / me_range=16 / chroma_me=1 / trellis=1 / 8x8dct=1 / cqm=0 / deadzone=21,11 / fast_pskip=0 / chroma_qp_offset=-2 / threads=12 / lookahead_threads=2 / sliced_threads=0 / nr=0 / decimate=1 / interlaced=0 / bluray_compat=0 / constrained_intra=0 / bframes=3 / b_pyramid=2 / b_adapt=1 / b_bias=0 / direct=1 / weightb=1 / open_gop=0 / weightp=2 / keyint=250 / keyint_min=23 / scenecut=40 / intra_refresh=0 / rc_lookahead=40 / rc=2pass / mbtree=1 / bitrate=9073 / ratetol=1.0 / qcomp=0.60 / qpmin=0 / qpmax=69 / qpstep=4 / cplxblur=20.0 / qblur=0.5 / ip_ratio=1.40 / aq=1:1.00
Default : Yes
Forced : No

Audio #1
ID : 2
Format : AC-3
Format/Info : Audio Coding 3
Commercial name : Dolby Digital
Codec ID : A_AC3
Duration : 1 h 44 min
Bit rate mode : Constant
Bit rate : 256 kb/s
Channel(s) : 2 channels
Channel layout : L R
Sampling rate : 48.0 kHz
Frame rate : 31.250 FPS (1536 SPF)
Bit depth : 16 bits
Compression mode : Lossy
Stream size : 192 MiB (2%)
Title : dubbed
Language : English
Service kind : Complete Main
Default : Yes
Forced : No

Audio #2
ID : 3
Format : DTS
Format/Info : Digital Theater Systems
Codec ID : A_DTS
Duration : 1 h 44 min
Bit rate mode : Constant
Bit rate : 1 509 kb/s
Channel(s) : 6 channels
Channel layout : C L R Ls Rs LFE
Sampling rate : 48.0 kHz
Frame rate : 93.750 FPS (512 SPF)
Bit depth : 24 bits
Compression mode : Lossy
Stream size : 1.11 GiB (14%)
Language : Japanese
Default : No
Forced : No

Text #1
ID : 4
Format : UTF-8
Codec ID : S_TEXT/UTF8
Codec ID/Info : UTF-8 Plain Text
Duration : 1 h 5 min
Bit rate : 2 b/s
Count of elements : 28
Stream size : 1.12 KiB (0%)
Title : forced
Language : English
Default : Yes
Forced : No

Text #2
ID : 5
Format : UTF-8
Codec ID : S_TEXT/UTF8
Codec ID/Info : UTF-8 Plain Text
Duration : 1 h 41 min
Bit rate : 48 b/s
Count of elements : 991
Stream size : 35.7 KiB (0%)
Language : English
Default : No
Forced : No





1 个附件 售价 大小 下载 时间

Godzilla.VS.Biollante.1989.1080p.BluRay.x264-SADPANDA.torrent 0 金币 40.23K 777 次 6天前

#1楼
发帖时间:2019-08-14 19:22:55   |   回复数:3
liyouchai
隐世仙人♂
谢谢楼主分享资源
6天前 #2楼
kola13
一派掌门
感谢分享
6天前 #3楼
911degrees
隐世仙人♂
非常感谢,谢谢分享
5天前 #4楼
游客组