conanlcg
超级版主

[2014] [其他] [恐怖] [BD-1080P] 美丽的人/美丽腥世界 Beautiful.People.2014.1080p.BluRay.x264-HANDJOB 5.61GB

-->

帖子完整标题:美丽的人/美丽腥世界 Beautiful.People.2014.1080p.BluRay.x264-HANDJOB 5.61GB




◎译  名 美丽的人 / 美丽腥世界(台)
◎片  名 Beautiful People
◎年  代 2014
◎产  地 意大利
◎类  别 恐怖
◎语  言 英语
◎IMDb评分 3.7/10 from 411 users
◎IMDb链接 http://www.imdb.com/title/tt3171784
◎豆瓣评分 0/10 from 0 users
◎豆瓣链接 https://movie.douban.com/subject/25812796/
◎导  演 Brini Amerigo
◎编  剧 Brini Amerigo / Andrea Cavaletto
◎主  演 Danny Cutler
      Alex Lucchesi
      Alex Southern
      Kate Marie Davies
      David White
      James Wiles
      Vanina Marini
      Alexandra Antonioli
      Ettore Nicoletti
      Mirko Lomuscio
      Reporter
      Marco Patrassi
      Zombie Lab
      Enrico Galli
      Tania Caceres Alessi


◎标  签 恐怖 | 犯罪 | 血腥 | 丧尸 | Cult | 美好人类 | 番茄 | 07.其它国家重口味

◎简  介

  In a mansion in the woods, the peaceful life of a medical scientist and his family is upset by a three masked men raid. During an endless night of terror and violence, the unthinkable happens: the house is invaded by inhuman monsters. Fear will unveil the true nature of each character, forcing them to wonder..."Who is the real monster?"
Video
ID : 2
Format : AVC
Format/Info : Advanced Video Codec
Format profile : [email protected]
Format settings : CABAC / 5 Ref Frames
Format settings, CABAC : Yes
Format settings, Reference frames : 5 frames
Codec ID : V_MPEG4/ISO/AVC
Duration : 1 h 12 min
Bit rate : 10.4 Mb/s
Width : 1 920 pixels
Height : 822 pixels
Display aspect ratio : 2.35:1
Frame rate mode : Constant
Frame rate : 24.000 FPS
Color space : YUV
Chroma subsampling : 4:2:0
Bit depth : 8 bits
Scan type : Progressive
Bits/(Pixel*Frame) : 0.276
Stream size : 5.28 GiB (94%)
Writing library : x264 core 157 r2935 545de2f
Encoding settings : cabac=1 / ref=5 / deblock=1:-3:-3 / analyse=0x3:0x133 / me=umh / subme=10 / psy=1 / psy_rd=1.00:0.00 / mixed_ref=1 / me_range=32 / chroma_me=1 / trellis=2 / 8x8dct=1 / cqm=0 / deadzone=21,11 / fast_pskip=0 / chroma_qp_offset=-2 / threads=26 / lookahead_threads=6 / sliced_threads=0 / nr=0 / decimate=0 / interlaced=0 / bluray_compat=0 / constrained_intra=0 / bframes=16 / b_pyramid=2 / b_adapt=2 / b_bias=0 / direct=3 / weightb=1 / open_gop=0 / weightp=2 / keyint=240 / keyint_min=24 / scenecut=40 / intra_refresh=0 / rc_lookahead=60 / rc=crf / mbtree=0 / crf=16.5 / qcomp=0.60 / qpmin=0 / qpmax=69 / qpstep=4 / vbv_maxrate=62500 / vbv_bufsize=78125 / crf_max=0.0 / nal_hrd=none / filler=0 / ip_ratio=1.40 / pb_ratio=1.30 / aq=2:1.00
Default : Yes
Forced : No
Color range : Limited
Color primaries : BT.709
Transfer characteristics : BT.709
Matrix coefficients : BT.709

Audio
ID : 1
Format : AC-3
Format/Info : Audio Coding 3
Commercial name : Dolby Digital
Codec ID : A_AC3
Duration : 1 h 12 min
Bit rate mode : Constant
Bit rate : 640 kb/s
Channel(s) : 6 channels
Channel layout : L R C LFE Ls Rs
Sampling rate : 48.0 kHz
Frame rate : 31.250 FPS (1536 SPF)
Bit depth : 16 bits
Compression mode : Lossy
Stream size : 332 MiB (6%)
Language : English
Service kind : Complete Main
Default : Yes
Forced : No

Menu
00:00:00.000 : en:Chapter 1
00:07:27.833 : en:Chapter 2
00:08:38.417 : en:Chapter 3
00:14:14.125 : en:Chapter 4
00:18:18.000 : en:Chapter 5
00:23:07.125 : en:Chapter 6
00:27:56.875 : en:Chapter 7
00:34:12.292 : en:Chapter 8
00:44:12.250 : en:Chapter 9
00:46:46.750 : en:Chapter 10
00:49:03.833 : en:Chapter 11
00:53:25.333 : en:Chapter 12
00:56:03.125 : en:Chapter 13
00:57:40.000 : en:Chapter 14
01:00:21.167 : en:Chapter 15
01:06:06.708 : en:Chapter 16





1 个附件 售价 大小 下载 时间

Beautiful.People.2014.1080p.BluRay.x264-HANDJOB.torrent 0 金币 28.58K 595 次 3月前

#1楼
发帖时间:2019-08-14 19:21:16   |   回复数:2
liyouchai
隐世仙人♂
谢谢楼主分享资源
3月前 #2楼
911degrees
隐世仙人♂
非常感谢,谢谢分享
3月前 #3楼
游客组