conanlcg
超级版主

[2012] [其他] [剧情] [BD-1080P] 红狼 Den.Roda.Vargen.2012.SWEDISH.1080p.BluRay.x264-HANDJOB 7.85GB

-->

帖子完整标题:红狼 Den.Roda.Vargen.2012.SWEDISH.1080p.BluRay.x264-HANDJOB 7.85GB




◎译  名 红狼 / The Red Wolf
◎片  名 Den r?da vargen
◎年  代 2012
◎产  地 Sweden
◎类  别 剧情 / 犯罪
◎语  言 瑞典语
◎IMDb评分 6.2/10 from 1484 users
◎IMDb链接 http://www.imdb.com/title/tt2188010
◎豆瓣评分 0/10 from 0 users
◎豆瓣链接 https://movie.douban.com/subject/11504253/
◎导  演 Agneta Fagerstr?m-Olsson
◎主  演 Malin Crépin


◎标  签 推理 | 犯罪 | 悬疑 | 瑞典电影 | 剧情 | 欧洲 | 北欧五国

◎简  介

  One dark autumn night a journalist is murdered in Lulea. That leads Annika to an old attack on the airbase F21 in the late 1960s, when a young draftee was killed. More murders follow, and Annika is drawn into a deadly spiral of violence and terrorism that leads right up to the Cabinet Office and the Ministries.。
Video
ID : 1
Format : AVC
Format/Info : Advanced Video Codec
Format profile : [email protected]
Format settings : CABAC / 4 Ref Frames
Format settings, CABAC : Yes
Format settings, Reference frames : 4 frames
Codec ID : V_MPEG4/ISO/AVC
Duration : 1 h 28 min
Bit rate : 12.0 Mb/s
Width : 1 920 pixels
Height : 1 080 pixels
Display aspect ratio : 16:9
Frame rate mode : Constant
Frame rate : 25.000 FPS
Color space : YUV
Chroma subsampling : 4:2:0
Bit depth : 8 bits
Scan type : Progressive
Bits/(Pixel*Frame) : 0.231
Stream size : 7.42 GiB (95%)
Writing library : x264 core 157 r2935 545de2f
Encoding settings : cabac=1 / ref=4 / deblock=1:-3:-3 / analyse=0x3:0x133 / me=umh / subme=10 / psy=1 / psy_rd=1.00:0.00 / mixed_ref=1 / me_range=32 / chroma_me=1 / trellis=2 / 8x8dct=1 / cqm=0 / deadzone=21,11 / fast_pskip=0 / chroma_qp_offset=-2 / threads=12 / lookahead_threads=3 / sliced_threads=0 / nr=0 / decimate=0 / interlaced=0 / bluray_compat=0 / constrained_intra=0 / bframes=16 / b_pyramid=2 / b_adapt=2 / b_bias=0 / direct=3 / weightb=1 / open_gop=0 / weightp=2 / keyint=250 / keyint_min=25 / scenecut=40 / intra_refresh=0 / rc_lookahead=60 / rc=crf / mbtree=0 / crf=17.5 / qcomp=0.60 / qpmin=0 / qpmax=69 / qpstep=4 / vbv_maxrate=62500 / vbv_bufsize=78125 / crf_max=0.0 / nal_hrd=none / filler=0 / ip_ratio=1.40 / pb_ratio=1.30 / aq=2:1.00
Default : Yes
Forced : No
Color range : Limited
Color primaries : BT.709
Transfer characteristics : BT.709
Matrix coefficients : BT.709

Audio
ID : 2
Format : AC-3
Format/Info : Audio Coding 3
Commercial name : Dolby Digital
Codec ID : A_AC3
Duration : 1 h 28 min
Bit rate mode : Constant
Bit rate : 640 kb/s
Channel(s) : 6 channels
Channel layout : L R C LFE Ls Rs
Sampling rate : 48.0 kHz
Frame rate : 31.250 FPS (1536 SPF)
Bit depth : 16 bits
Compression mode : Lossy
Stream size : 406 MiB (5%)
Language : Swedish
Service kind : Complete Main
Default : Yes
Forced : No

Text #1
ID : 3
Format : UTF-8
Codec ID : S_TEXT/UTF8
Codec ID/Info : UTF-8 Plain Text
Duration : 1 h 24 min
Bit rate : 41 b/s
Count of elements : 978
Stream size : 25.7 KiB (0%)
Language : English
Default : Yes
Forced : No

Text #2
ID : 4
Format : PGS
Muxing mode : zlib
Codec ID : S_HDMV/PGS
Codec ID/Info : Picture based subtitle format used on BDs/HD-DVDs
Duration : 1 h 26 min
Bit rate : 29.7 kb/s
Count of elements : 1564
Stream size : 18.4 MiB (0%)
Language : Swedish
Default : No
Forced : No

Text #3
ID : 5
Format : PGS
Muxing mode : zlib
Codec ID : S_HDMV/PGS
Codec ID/Info : Picture based subtitle format used on BDs/HD-DVDs
Duration : 1 h 27 min
Bit rate : 30.4 kb/s
Count of elements : 1516
Stream size : 19.0 MiB (0%)
Language : Norwegian
Default : No
Forced : No

Text #4
ID : 6
Format : PGS
Muxing mode : zlib
Codec ID : S_HDMV/PGS
Codec ID/Info : Picture based subtitle format used on BDs/HD-DVDs
Duration : 1 h 27 min
Bit rate : 31.4 kb/s
Count of elements : 1520
Stream size : 19.6 MiB (0%)
Language : Finnish
Default : No
Forced : No

Menu
00:00:00.000 : en:Chapter 1
00:10:00.000 : en:Chapter 2
00:19:42.160 : en:Chapter 3
00:30:01.600 : en:Chapter 4
00:40:00.000 : en:Chapter 5
00:50:00.000 : en:Chapter 6
01:00:00.000 : en:Chapter 7
01:10:00.000 : en:Chapter 8
01:19:34.920 : en:Chapter 9
01:26:48.040 : en:Chapter 10





1 个附件 售价 大小 下载 时间

Den.Roda.Vargen.2012.SWEDISH.1080p.BluRay.x264-HANDJOB.torrent 0 金币 39.78K 287 次 6天前

#1楼
发帖时间:2019-08-14 19:18:57   |   回复数:3
liyouchai
隐世仙人♂
谢谢楼主分享资源
6天前 #2楼
911degrees
隐世仙人♂
非常感谢,谢谢分享
5天前 #3楼
tanchoohoon
武林盟主
感谢楼主的无私分享
5天前 #4楼
游客组