conanlcg
超级版主

[更 早] [欧美] [科幻] [BD-1080P] 飞碟入侵地球 Earth.Vs.The.Flying.Saucers.1956.1080p.BluRay.x264-HANDJOB 7.19GB

-->

帖子完整标题:飞碟入侵地球 Earth.Vs.The.Flying.Saucers.1956.1080p.BluRay.x264-HANDJOB 7.19GB




◎译  名 飞碟入侵地球
◎片  名 Earth vs. the Flying Saucers
◎年  代 1956
◎产  地 美国
◎类  别 科幻 / 恐怖 / 奇幻
◎语  言 英语
◎上映日期 1956-08-01
◎IMDb评分 6.4/10 from 6409 users
◎IMDb链接 http://www.imdb.com/title/tt0049169
◎豆瓣评分 6.0/10 from 100 users
◎豆瓣链接 https://movie.douban.com/subject/2295259/
◎片  长 83 分钟
◎导  演 Fred F. Sears
◎编  剧 Donald E. Keyhoe / Curt Siodmak / George Worthing Yates / Bernard Gordon
◎主  演 休·马洛威 Hugh Marlowe
      琼·泰勒 Joan Taylor
      Donald Curtis


◎标  签 科幻 | 美国 | 1956 | cult | 1950s | 黑白 | 美国电影 | 恐怖

◎简  介

  While driving through the desert with his wife Carol Marvin to a military base to send the eleventh rocket to the orbit of Earth for helping the exploration of the outer space in the Operation Sky Hook, Dr. Russell A. Marvin and Carol see a flying saucer and accidentally records a message in their tape recorder. Once in the base, Dr. Russell is informed by his father-in-law and general that the ten first satellites had mysteriously felt on Earth. When Dr. Russell decodes the message, he encounters the aliens that ask him to schedule a meeting with the leaders of Earth in Washington in 56 days with the intention to invade Earth without panicking the population. Dr. Russell develops an anti-magnetic weapon that becomes that last hope of human race against the hostile aliens.
Video
ID : 1
Format : AVC
Format/Info : Advanced Video Codec
Format profile : [email protected]
Format settings : CABAC / 4 Ref Frames
Format settings, CABAC : Yes
Format settings, Reference frames : 4 frames
Codec ID : V_MPEG4/ISO/AVC
Duration : 1 h 23 min
Bit rate : 11.7 Mb/s
Width : 1 920 pixels
Height : 1 040 pixels
Display aspect ratio : 1.85:1
Frame rate mode : Constant
Frame rate : 23.976 (24000/1001) FPS
Color space : YUV
Chroma subsampling : 4:2:0
Bit depth : 8 bits
Scan type : Progressive
Bits/(Pixel*Frame) : 0.243
Stream size : 6.81 GiB (95%)
Writing library : x264 core 157 r2935 545de2f
Encoding settings : cabac=1 / ref=4 / deblock=1:-3:-3 / analyse=0x3:0x133 / me=umh / subme=9 / psy=1 / psy_rd=1.00:0.00 / mixed_ref=1 / me_range=24 / chroma_me=1 / trellis=2 / 8x8dct=1 / cqm=0 / deadzone=21,11 / fast_pskip=0 / chroma_qp_offset=-2 / threads=18 / lookahead_threads=2 / sliced_threads=0 / nr=0 / decimate=1 / interlaced=0 / bluray_compat=0 / constrained_intra=0 / bframes=5 / b_pyramid=2 / b_adapt=2 / b_bias=0 / direct=3 / weightb=1 / open_gop=0 / weightp=2 / keyint=240 / keyint_min=24 / scenecut=40 / intra_refresh=0 / rc_lookahead=50 / rc=crf / mbtree=0 / crf=20.8 / qcomp=0.60 / qpmin=0 / qpmax=69 / qpstep=4 / vbv_maxrate=62500 / vbv_bufsize=78125 / crf_max=0.0 / nal_hrd=none / filler=0 / ip_ratio=1.40 / pb_ratio=1.30 / aq=2:1.00
Default : Yes
Forced : No
Color range : Limited
Color primaries : BT.709
Transfer characteristics : BT.709
Matrix coefficients : BT.709

Audio
ID : 2
Format : AC-3
Format/Info : Audio Coding 3
Commercial name : Dolby Digital
Codec ID : A_AC3
Duration : 1 h 23 min
Bit rate mode : Constant
Bit rate : 640 kb/s
Channel(s) : 6 channels
Channel layout : L R C LFE Ls Rs
Sampling rate : 48.0 kHz
Frame rate : 31.250 FPS (1536 SPF)
Bit depth : 16 bits
Compression mode : Lossy
Stream size : 383 MiB (5%)
Language : English
Service kind : Complete Main
Default : Yes
Forced : No

Text
ID : 3
Format : UTF-8
Codec ID : S_TEXT/UTF8
Codec ID/Info : UTF-8 Plain Text
Duration : 1 h 23 min
Bit rate : 55 b/s
Count of elements : 779
Stream size : 34.1 KiB (0%)
Language : English
Default : No
Forced : No

Menu
00:00:00.000 : :1. UFO Sighting
00:02:46.333 : :2. Operation Sky Hook
00:06:11.955 : :3. Stop and Evaluate
00:10:44.102 : :4. Shot Down
00:12:14.275 : :5. Special BBQ
00:15:07.824 : :6. Rocket Number 12
00:17:45.856 : :7. UFO Landing
00:20:34.942 : :8. Destroy and Capture
00:24:22.753 : :9. Interstellar Conveyance
00:27:25.727 : :10. The Message
00:30:13.979 : :11. Calling the UFO
00:33:22.125 : :12. Car Chase
00:35:21.703 : :13. Boarding the UFO
00:38:02.322 : :14. Between the Ticks
00:41:22.939 : :15. Avoid Fighting
00:44:17.989 : :16. New Weapon
00:48:16.268 : :17. Function in Reality
00:49:47.651 : :18. It Works
00:52:53.879 : :19. Fire It Up
00:56:32.681 : :20. Humanoid
00:59:27.856 : :21. Decoding Their Language
01:02:44.010 : :22. Super Powers
01:06:35.992 : :23. Sun Spots
01:07:36.219 : :24. Going Away Present
01:10:57.420 : :25. Breaking Through
01:14:00.227 : :26. Shot Down
01:17:23.681 : :27. Falling From the Sky
01:20:15.144 : :28. Present Danger Ended





1 个附件 售价 大小 下载 时间

Earth.Vs.The.Flying.Saucers.1956.1080p.BluRay.x264-HANDJOB.torrent 0 金币 36.49K 441 次 3月前

#1楼
发帖时间:2019-08-14 19:16:57   |   回复数:2
liyouchai
隐世仙人♂
谢谢楼主分享资源
3月前 #2楼
911degrees
隐世仙人♂
非常感谢,谢谢分享
3月前 #3楼
游客组