conanlcg
超级版主

[更 早] [日本] [科幻] [BD-1080P] 哥斯拉:大怪兽总攻击/终极酷斯拉 Godzilla.Mothra.And.King.Ghidorah.Giant.Monsters.All-Out.Attack

-->

帖子完整标题:哥斯拉:大怪兽总攻击/终极酷斯拉 Godzilla.Mothra.And.King.Ghidorah.Giant.Monsters.All-Out.Attack.2001.1080p.BluRay.x264-PHOBOS 9.84GB




◎译  名 哥斯拉:大怪兽总攻击 / 终极酷斯拉
◎片  名 ゴジラ?モスラ?キングギドラ 大怪獣総攻撃
◎年  代 2001
◎产  地 日本
◎类  别 科幻 / 惊悚 / 恐怖 / 奇幻
◎语  言 日语
◎上映日期 2001-12-15
◎IMDb评分 7.2/10 from 4638 users
◎IMDb链接 http://www.imdb.com/title/tt0279112
◎豆瓣评分 6.8/10 from 420 users
◎豆瓣链接 https://movie.douban.com/subject/1941150/
◎片  长 105 分钟
◎导  演 金子修介
◎编  剧 長谷川圭一 / 横谷昌宏
◎主  演 新山千春
      宇崎竜童
      葛山信吾


◎标  签 哥斯拉 | 日本 | 科幻 | 特摄 | 2001 | 电影 | 日本电影 | 经典

◎简  介

  一艘隶属美国的核潜艇在关岛附近消失,后经日本方面证实该潜艇已因事故遇难,而防卫军在调查过程中竟然还在海底发现巨大生物的存在。与此同时,新泻妙高山、鹿儿岛池田湖、小笠原诸岛等地接连发生强烈的地震和人员伤亡事件,关于50年前那头大闹日本的哥斯拉的恐怖记忆相继在人们的脑中复苏。
  BS电视台女记者立花由里(新山千春 饰)近期正与同事调查接二连三的怪兽事件,从一个神秘老人的口中得知,所谓哥斯拉其实是太平洋战争中丧生的人们的冤魂聚集而成的怪兽,核潜艇事故引起的核泄漏似乎意外将哥斯拉唤醒。与它一同苏醒的还有被称为护国神兽的巴拉哥、摩斯拉、基多拉。日本本土面临空前的灾难……
Video
ID : 1
Format : AVC
Format/Info : Advanced Video Codec
Format profile : [email protected]
Format settings : CABAC / 5 Ref Frames
Format settings, CABAC : Yes
Format settings, Reference frames : 5 frames
Codec ID : V_MPEG4/ISO/AVC
Duration : 1 h 45 min
Bit rate : 10.4 Mb/s
Width : 1 920 pixels
Height : 824 pixels
Display aspect ratio : 2.35:1
Frame rate mode : Constant
Frame rate : 23.976 (24000/1001) FPS
Color space : YUV
Chroma subsampling : 4:2:0
Bit depth : 8 bits
Scan type : Progressive
Bits/(Pixel*Frame) : 0.273
Stream size : 7.62 GiB (77%)
Writing library : x264 core 142 r2453 ea0ca51
Encoding settings : cabac=1 / ref=5 / deblock=1:0:0 / analyse=0x3:0x113 / me=umh / subme=8 / psy=1 / psy_rd=1.00:0.00 / mixed_ref=1 / me_range=16 / chroma_me=1 / trellis=1 / 8x8dct=1 / cqm=0 / deadzone=21,11 / fast_pskip=1 / chroma_qp_offset=-2 / threads=12 / lookahead_threads=2 / sliced_threads=0 / nr=0 / decimate=1 / interlaced=0 / bluray_compat=0 / constrained_intra=0 / bframes=3 / b_pyramid=2 / b_adapt=2 / b_bias=0 / direct=3 / weightb=1 / open_gop=0 / weightp=2 / keyint=240 / keyint_min=23 / scenecut=40 / intra_refresh=0 / rc_lookahead=50 / rc=2pass / mbtree=1 / bitrate=10358 / ratetol=1.0 / qcomp=0.60 / qpmin=0 / qpmax=69 / qpstep=4 / cplxblur=20.0 / qblur=0.5 / ip_ratio=1.40 / aq=1:1.00
Language : English
Default : Yes
Forced : No

Audio #1
ID : 2
Format : DTS
Format/Info : Digital Theater Systems
Codec ID : A_DTS
Duration : 1 h 45 min
Bit rate mode : Constant
Bit rate : 1 509 kb/s
Channel(s) : 6 channels
Channel layout : C L R Ls Rs LFE
Sampling rate : 48.0 kHz
Frame rate : 93.750 FPS (512 SPF)
Bit depth : 24 bits
Compression mode : Lossy
Stream size : 1.11 GiB (11%)
Language : Japanese
Default : Yes
Forced : No

Audio #2
ID : 3
Format : DTS
Format/Info : Digital Theater Systems
Codec ID : A_DTS
Duration : 1 h 45 min
Bit rate mode : Constant
Bit rate : 1 509 kb/s
Channel(s) : 6 channels
Channel layout : C L R Ls Rs LFE
Sampling rate : 48.0 kHz
Frame rate : 93.750 FPS (512 SPF)
Bit depth : 24 bits
Compression mode : Lossy
Stream size : 1.11 GiB (11%)
Language : English
Default : No
Forced : No

Text #1
ID : 4
Format : UTF-8
Codec ID : S_TEXT/UTF8
Codec ID/Info : UTF-8 Plain Text
Duration : 38 min 18 s
Bit rate : 0 b/s
Count of elements : 7
Stream size : 238 Bytes (0%)
Language : English
Default : Yes
Forced : No

Text #2
ID : 5
Format : UTF-8
Codec ID : S_TEXT/UTF8
Codec ID/Info : UTF-8 Plain Text
Duration : 1 h 39 min
Bit rate : 45 b/s
Count of elements : 940
Stream size : 33.4 KiB (0%)
Title : English (Forced)
Language : English
Default : No
Forced : Yes





1 个附件 售价 大小 下载 时间

Godzilla.Mothra.And.King.Ghidorah.Giant.Monsters.All-Out.Attack.2001.1080p.BluRay.x264-PHOBOS.torrent 0 金币 49.80K 1022 次 6天前

#1楼
发帖时间:2019-08-14 19:13:04   |   回复数:3
liyouchai
隐世仙人♂
谢谢楼主分享资源
6天前 #2楼
911degrees
隐世仙人♂
非常感谢,谢谢分享
5天前 #3楼
kola13
一派掌门
感谢分享
5天前 #4楼
游客组