conanlcg
超级版主

[更 早] [日本] [剧情] [BD-1080P] 哥斯拉之魔龙复仇/六度空间大水怪 Godzilla.VS.King.Ghidorah.1991.1080p.BluRay.x264-SADPANDA 8.75G

-->

帖子完整标题:哥斯拉之魔龙复仇/六度空间大水怪 Godzilla.VS.King.Ghidorah.1991.1080p.BluRay.x264-SADPANDA 8.75GB




◎译  名 哥斯拉之魔龙复仇 / 六度空间大水怪 / 哥斯拉大战三头龙 / 战龙哥斯拉之魔龙复仇
◎片  名 ゴジラvsキングギドラ
◎年  代 1991
◎产  地 日本
◎类  别 剧情 / 动作 / 科幻 / 恐怖 / 冒险
◎语  言 日语
◎上映日期 1991-12-14
◎IMDb评分 6.6/10 from 5023 users
◎IMDb链接 http://www.imdb.com/title/tt0101962
◎豆瓣评分 6.7/10 from 563 users
◎豆瓣链接 https://movie.douban.com/subject/1304082/
◎片  长 103 分钟
◎导  演 大森一樹
◎编  剧 大森一樹
◎主  演 中川安奈
      豊原功補
      小高恵美
      原田貴和子
      土屋嘉男
      西岡徳馬
      山村聡
      佐々木勝彦
      小林昭二
      上田耕一


◎标  签 怪兽 | 日本 | 哥斯拉 | 日本电影 | 电影 | 特摄 | 科幻 | 美国

◎简  介

  1992年,一架飞碟突然出现日本上空。飞碟走下三名自称时来自23世纪地球联邦机构的官员,他们要求直接与日本首脑对话,敦促日本尽快消灭哥斯拉,防止重蹈未来亡国的命运。
  专事研究各种神秘事件的寺泽健一郎(丰原功补 饰)在未来写过《哥斯拉诞生》一书,其中披露了这只恐怖怪兽诞生的秘密。根据这本书的记载,未来人提出要健一郎、曾在太平洋战争期间目击哥斯拉的恐龙专家真崎洋典(佐佐木胜彦 饰)以及国家超科学研究中心成员三枝未希(小高惠美 饰)乘坐时光机返回1944年的拉哥斯小岛,试图将哥斯拉传送到别的地方。
  寺泽他们的行动取得成功,但是20世纪却出现了另一头怪兽三头金龙王。种种诡异事件的背后,可怕的危机遽然降临……
Video
ID : 5
Format : AVC
Format/Info : Advanced Video Codec
Format profile : [email protected]
Format settings : CABAC / 4 Ref Frames
Format settings, CABAC : Yes
Format settings, Reference frames : 4 frames
Codec ID : V_MPEG4/ISO/AVC
Duration : 1 h 40 min
Bit rate : 9 393 kb/s
Width : 1 920 pixels
Height : 1 040 pixels
Display aspect ratio : 1.85:1
Frame rate mode : Constant
Frame rate : 23.976 (24000/1001) FPS
Color space : YUV
Chroma subsampling : 4:2:0
Bit depth : 8 bits
Scan type : Progressive
Bits/(Pixel*Frame) : 0.196
Stream size : 6.45 GiB (74%)
Writing library : x264 core 142 r2431 ac76440
Encoding settings : cabac=1 / ref=4 / deblock=1:0:0 / analyse=0x3:0x133 / me=umh / subme=8 / psy=1 / psy_rd=1.00:0.00 / mixed_ref=1 / me_range=16 / chroma_me=1 / trellis=1 / 8x8dct=1 / cqm=0 / deadzone=21,11 / fast_pskip=0 / chroma_qp_offset=-2 / threads=18 / lookahead_threads=3 / sliced_threads=0 / nr=0 / decimate=1 / interlaced=0 / bluray_compat=0 / constrained_intra=0 / bframes=3 / b_pyramid=2 / b_adapt=1 / b_bias=0 / direct=1 / weightb=1 / open_gop=0 / weightp=2 / keyint=250 / keyint_min=23 / scenecut=40 / intra_refresh=0 / rc_lookahead=40 / rc=2pass / mbtree=1 / bitrate=9393 / ratetol=1.0 / qcomp=0.60 / qpmin=0 / qpmax=69 / qpstep=4 / cplxblur=20.0 / qblur=0.5 / ip_ratio=1.40 / aq=1:1.00
Language : English
Default : Yes
Forced : No

Audio #1
ID : 1
Format : DTS
Format/Info : Digital Theater Systems
Codec ID : A_DTS
Duration : 1 h 40 min
Bit rate mode : Constant
Bit rate : 1 509 kb/s
Channel(s) : 2 channels
Channel layout : L R
Sampling rate : 48.0 kHz
Frame rate : 93.750 FPS (512 SPF)
Bit depth : 24 bits
Compression mode : Lossy
Stream size : 1.06 GiB (12%)
Title : Japanese
Language : Japanese
Default : No
Forced : No

Audio #2
ID : 2
Format : DTS
Format/Info : Digital Theater Systems
Codec ID : A_DTS
Duration : 1 h 40 min
Bit rate mode : Constant
Bit rate : 1 509 kb/s
Channel(s) : 2 channels
Channel layout : L R
Sampling rate : 48.0 kHz
Frame rate : 93.750 FPS (512 SPF)
Bit depth : 24 bits
Compression mode : Lossy
Stream size : 1.06 GiB (12%)
Title : English
Language : English
Default : Yes
Forced : No

Text #1
ID : 3
Format : UTF-8
Codec ID : S_TEXT/UTF8
Codec ID/Info : UTF-8 Plain Text
Title : English
Language : English
Default : No
Forced : No

Text #2
ID : 4
Format : UTF-8
Codec ID : S_TEXT/UTF8
Codec ID/Info : UTF-8 Plain Text
Title : English Forced
Language : English
Default : Yes
Forced : No





1 个附件 售价 大小 下载 时间

Godzilla.VS.King.Ghidorah.1991.1080p.BluRay.x264-SADPANDA.torrent 0 金币 44.28K 938 次 6天前

#1楼
发帖时间:2019-08-14 19:10:58   |   回复数:3
liyouchai
隐世仙人♂
谢谢楼主分享资源
6天前 #2楼
911degrees
隐世仙人♂
非常感谢,谢谢分享
5天前 #3楼
kola13
一派掌门
感谢分享
5天前 #4楼
游客组