conanlcg
超级版主

[更 早] [日本] [科幻] [BD-1080P] 哥斯拉大战超翔龙 Godzilla.vs.Megaguirus.2000.iNTERNAL.1080p.BluRay.x264-WaLMaRT 8.74GB

-->

帖子完整标题:哥斯拉大战超翔龙 Godzilla.vs.Megaguirus.2000.iNTERNAL.1080p.BluRay.x264-WaLMaRT 8.74GB




◎译  名 哥斯拉大战超翔龙 / Godzilla X Megaguirus: The G Extermination Command / Gojira tai Megagirasu: J? sh?metsu sakusen / 哥吉拉大战蝶龙
◎片  名 ゴジラ×メガギラス G消滅作戦
◎年  代 2000
◎产  地 日本
◎类  别 科幻
◎语  言 日语
◎上映日期 2000-12-16
◎IMDb评分 6.2/10 from 2952 users
◎IMDb链接 http://www.imdb.com/title/tt0255198
◎豆瓣评分 6.0/10 from 280 users
◎豆瓣链接 https://movie.douban.com/subject/2063932/
◎片  长 105 分钟
◎导  演 Masaaki Tezuka
◎编  剧 柏原寛司 / 三村渉
◎主  演 田中美里 Misato Tanaka
      谷原章介 Sh?suke Tanihara
      伊武雅刀 Masat? Ibu
      星由里子 Yuriko Hoshi
      黑部进 Susumu Kurobe


◎标  签 日本电影 | 日本 | 科幻 | 哥斯拉 | 特摄 | 2000 | 怪兽 | 电影

◎简  介

  哥斯拉破坏日本多年,〈G对策总部〉发明黑洞炮对付。但实验出意外,引来古代巨大昆虫超翔龙重现,并攻击哥斯拉。日本成了哥斯拉、超翔龙及人类三方的战场。
Video
ID : 1
Format : AVC
Format/Info : Advanced Video Codec
Format profile : [email protected]
Format settings : CABAC / 5 Ref Frames
Format settings, CABAC : Yes
Format settings, Reference frames : 5 frames
Codec ID : V_MPEG4/ISO/AVC
Duration : 1 h 46 min
Bit rate : 8 782 kb/s
Width : 1 920 pixels
Height : 816 pixels
Display aspect ratio : 2.35:1
Frame rate mode : Constant
Frame rate : 23.976 (24000/1001) FPS
Color space : YUV
Chroma subsampling : 4:2:0
Bit depth : 8 bits
Scan type : Progressive
Bits/(Pixel*Frame) : 0.234
Stream size : 6.33 GiB (72%)
Writing library : x264 core 146 r2538 121396c
Encoding settings : cabac=1 / ref=5 / deblock=1:-1:-1 / analyse=0x3:0x133 / me=umh / subme=7 / psy=1 / psy_rd=1.00:0.00 / mixed_ref=1 / me_range=16 / chroma_me=1 / trellis=1 / 8x8dct=1 / cqm=0 / deadzone=21,11 / fast_pskip=0 / chroma_qp_offset=-2 / threads=9 / lookahead_threads=1 / sliced_threads=0 / nr=0 / decimate=1 / interlaced=0 / bluray_compat=0 / constrained_intra=0 / bframes=3 / b_pyramid=2 / b_adapt=2 / b_bias=0 / direct=3 / weightb=1 / open_gop=0 / weightp=2 / keyint=240 / keyint_min=23 / scenecut=40 / intra_refresh=0 / rc_lookahead=50 / rc=2pass / mbtree=0 / bitrate=8782 / ratetol=1.0 / qcomp=0.60 / qpmin=10 / qpmax=51 / qpstep=4 / cplxblur=20.0 / qblur=0.5 / vbv_maxrate=62500 / vbv_bufsize=78125 / nal_hrd=none / filler=0 / ip_ratio=1.40 / pb_ratio=1.30 / aq=1:1.00
Default : Yes
Forced : No

Audio #1
ID : 2
Format : DTS
Format/Info : Digital Theater Systems
Codec ID : A_DTS
Duration : 1 h 46 min
Bit rate mode : Constant
Bit rate : 1 509 kb/s
Channel(s) : 6 channels
Channel layout : C L R Ls Rs LFE
Sampling rate : 48.0 kHz
Frame rate : 93.750 FPS (512 SPF)
Bit depth : 24 bits
Compression mode : Lossy
Stream size : 1.12 GiB (13%)
Language : Japanese
Default : Yes
Forced : No

Audio #2
ID : 3
Format : DTS
Format/Info : Digital Theater Systems
Codec ID : A_DTS
Duration : 1 h 46 min
Bit rate mode : Constant
Bit rate : 1 509 kb/s
Channel(s) : 6 channels
Channel layout : C L R Ls Rs LFE
Sampling rate : 48.0 kHz
Frame rate : 93.750 FPS (512 SPF)
Bit depth : 24 bits
Compression mode : Lossy
Stream size : 1.12 GiB (13%)
Language : English
Default : No
Forced : No

Text
ID : 4
Format : UTF-8
Codec ID : S_TEXT/UTF8
Codec ID/Info : UTF-8 Plain Text
Language : English
Default : Yes
Forced : No

Menu
00:00:00.000 : ja:00:00:00.000
00:06:54.331 : ja:00:06:54.331
00:12:37.173 : ja:00:12:37.173
00:18:55.301 : ja:00:18:55.301
00:25:23.355 : ja:00:25:23.355
00:32:25.861 : ja:00:32:25.861
00:38:58.461 : ja:00:38:58.461
00:45:35.816 : ja:00:45:35.816
00:52:22.639 : ja:00:52:22.639
00:58:55.031 : ja:00:58:55.031
01:05:43.439 : ja:01:05:43.439
01:11:52.725 : ja:01:11:52.725
01:17:09.583 : ja:01:17:09.583
01:24:53.839 : ja:01:24:53.839
01:31:56.010 : ja:01:31:56.010
01:38:49.924 : ja:01:38:49.924





1 个附件 售价 大小 下载 时间

Godzilla.vs.Megaguirus.2000.iNTERNAL.1080p.BluRay.x264-WaLMaRT.torrent 0 金币 44.21K 798 次 6天前

#1楼
发帖时间:2019-08-14 19:06:53   |   回复数:3
liyouchai
隐世仙人♂
谢谢楼主分享资源
6天前 #2楼
911degrees
隐世仙人♂
非常感谢,谢谢分享
5天前 #3楼
kola13
一派掌门
感谢分享
5天前 #4楼
游客组