conanlcg
超级版主

[更 早] [欧美] [喜剧] [WEB-1080P] 金牌天兵 In.The.Army.Now.1994.1080p.AMZN.WEBRip.DDP2.0.x264-SiGMA 9.15GB

-->

帖子完整标题:金牌天兵 In.The.Army.Now.1994.1080p.AMZN.WEBRip.DDP2.0.x264-SiGMA 9.15GB




◎译  名 金牌天兵
◎片  名 In the Army Now
◎年  代 1994
◎产  地 美国
◎类  别 喜剧 / 战争
◎语  言 英语
◎上映日期 1994-08-12
◎IMDb评分 4.9/10 from 11952 users
◎IMDb链接 http://www.imdb.com/title/tt0110123
◎豆瓣评分 0/10 from 0 users
◎豆瓣链接 https://movie.douban.com/subject/1297064/
◎片  长 91 分钟
◎导  演 小 丹尼尔 皮特里 (Daniel Petrie Jr.)
◎编  剧 Fax Bahr (Adam Small) / 小 丹尼尔 皮特里 (Daniel Petrie Jr.) / Fax Bahr
◎主  演 保利·肖尔 Pauly Shore


◎标  签 喜剧 | 美国电影 | 美国 | 经典老片 | 科幻 | 癫狂 | 电影 | 暴力

◎简  介

  暂无相关剧情介绍
Video
ID : 1
Format : AVC
Format/Info : Advanced Video Codec
Format profile : [email protected]
Format settings : CABAC / 4 Ref Frames
Format settings, CABAC : Yes
Format settings, ReFrames : 4 frames
Codec ID : V_MPEG4/ISO/AVC
Duration : 1 h 32 min
Bit rate mode : Variable
Bit rate : 13.9 Mb/s
Maximum bit rate : 15.0 Mb/s
Width : 1 920 pixels
Height : 1 080 pixels
Display aspect ratio : 16:9
Frame rate mode : Constant
Frame rate : 23.976 (24000/1001) FPS
Color space : YUV
Chroma subsampling : 4:2:0
Bit depth : 8 bits
Scan type : Progressive
Bits/(Pixel*Frame) : 0.280
Stream size : 9.00 GiB (98%)
Default : Yes
Forced : No
Color range : Limited
Color primaries : BT.709
Transfer characteristics : BT.709
Matrix coefficients : BT.709

Audio
ID : 2
Format : E-AC-3
Format/Info : Enhanced Audio Coding 3
Codec ID : A_EAC3
Duration : 1 h 32 min
Bit rate mode : Constant
Bit rate : 224 kb/s
Channel(s) : 2 channels
Channel positions : Front: L R
Sampling rate : 48.0 kHz
Frame rate : 187.500 FPS (256 SPF)
Compression mode : Lossy
Stream size : 148 MiB (2%)
Language : English
Service kind : Complete Main
Default : Yes
Forced : No

Text
ID : 3
Format : UTF-8
Codec ID : S_TEXT/UTF8
Codec ID/Info : UTF-8 Plain Text
Duration : 1 h 30 min
Bit rate : 84 b/s
Count of elements : 1748
Stream size : 56.0 KiB (0%)
Language : English
Default : No
Forced : No





1 个附件 售价 大小 下载 时间

In.The.Army.Now.1994.1080p.AMZN.WEBRip.DDP2.0.x264-SiGMA.torrent 0 金币 92.00K 273 次 3月前

#1楼
发帖时间:2019-08-14 17:52:49   |   回复数:4
blue23
隐世仙人♂
感谢楼主分享
3月前 #2楼
tanchoohoon
武林盟主
感谢楼主的无私分享
3月前 #3楼
liyouchai
隐世仙人♂
谢谢楼主分享资源
3月前 #4楼
911degrees
隐世仙人♂
非常感谢,谢谢分享
3月前 #5楼
游客组