conanlcg
超级版主

[2016] [欧美] [科幻] [WEB-1080P] 通往火星 Passage.to.Mars.2016.1080p.AMZN.WEBRip.DDP5.1.x264-TEPES 6.87GB

-->

帖子完整标题:通往火星 Passage.to.Mars.2016.1080p.AMZN.WEBRip.DDP5.1.x264-TEPES 6.87GB




◎译  名 通往火星
◎片  名 Passage to Mars
◎年  代 2016
◎产  地 美国
◎类  别 科幻 / 冒险
◎语  言 英语
◎上映日期 2016-09-30(美国)
◎IMDb评分 4.7/10 from 639 users
◎IMDb链接 http://www.imdb.com/title/tt3190158
◎豆瓣评分 0/10 from 0 users
◎豆瓣链接 https://movie.douban.com/subject/26594197/
◎片  长 94分钟
◎导  演 Jean-Christophe Jeauffre
◎编  剧 Jean-Christophe Jeauffre / Pascal Lee
◎主  演 扎克瑞·昆图 Zachary Quinto
      夏洛特·兰普林 Charlotte Rampling
      Pascal Lee
      巴兹·奥德林 Buzz Aldrin
      John Schutt
      Jesse Weaver
      Jean-Christophe Jeauffre
      Joe Amarualik
      Mark Carroll


◎标  签 科幻 | 美国 | 纪录片 | 2016 | ZacharyQuinto | 火星 | 夏洛特·兰普林 | 虚妄

◎简  介

  The journals of a true NASA Arctic expedition unveils the adventure of a six-man crew's aboard an experimental vehicle designed to prepare the first human exploration of Mars. A voyage of fears and survival, hopes and dreams, through the beauties and the deadly dangers of two worlds: the High Arctic and Mars, a planet that might hide the secret of our origins.
Video
ID : 1
Format : AVC
Format/Info : Advanced Video Codec
Format profile : [email protected]
Format settings : CABAC / 4 Ref Frames
Format settings, CABAC : Yes
Format settings, Reference frames : 4 frames
Codec ID : V_MPEG4/ISO/AVC
Duration : 1 h 34 min
Bit rate mode : Constant
Bit rate : 10 000 kb/s
Width : 1 920 pixels
Height : 1 080 pixels
Display aspect ratio : 16:9
Frame rate mode : Constant
Frame rate : 23.976 (24000/1001) FPS
Color space : YUV
Chroma subsampling : 4:2:0
Bit depth : 8 bits
Scan type : Progressive
Bits/(Pixel*Frame) : 0.201
Stream size : 6.45 GiB (94%)
Language : English
Default : Yes
Forced : No
Color range : Limited
Color primaries : BT.709
Transfer characteristics : BT.709
Matrix coefficients : BT.709

Audio
ID : 2
Format : E-AC-3
Format/Info : Enhanced AC-3
Commercial name : Dolby Digital Plus
Codec ID : A_EAC3
Duration : 1 h 34 min
Bit rate mode : Constant
Bit rate : 640 kb/s
Channel(s) : 6 channels
Channel layout : L R C LFE Ls Rs
Sampling rate : 48.0 kHz
Frame rate : 31.250 FPS (1536 SPF)
Compression mode : Lossy
Stream size : 435 MiB (6%)
Language : English
Service kind : Complete Main
Default : Yes
Forced : No

Text
ID : 3
Format : UTF-8
Codec ID : S_TEXT/UTF8
Codec ID/Info : UTF-8 Plain Text
Duration : 1 h 34 min
Bit rate : 49 b/s
Count of elements : 1124
Stream size : 34.3 KiB (0%)
Title : English [CC](SDH)
Language : English
Default : Yes
Forced : No





1 个附件 售价 大小 下载 时间

Passage.to.Mars.2016.1080p.AMZN.WEBRip.DDP5.1.x264-TEPES.torrent 0 金币 34.91K 602 次 3月前

#1楼
发帖时间:2019-08-14 17:34:38   |   回复数:3
blue23
隐世仙人♂
感谢楼主分享
3月前 #2楼
liyouchai
隐世仙人♂
谢谢楼主分享资源
3月前 #3楼
911degrees
隐世仙人♂
非常感谢,谢谢分享
3月前 #4楼
游客组