conanlcg
超级版主

[2019] [其他] [喜剧] [BD-1080P] 无上婚宴 Top.End.Wedding.2019.1080p.BluRay.x264.DTS-HD.MA.5.1-FGT 9.48GB

-->

帖子完整标题:无上婚宴 Top.End.Wedding.2019.1080p.BluRay.x264.DTS-HD.MA.5.1-FGT 9.48GB




◎译  名 无上婚宴 / Top-End Wedding
◎片  名 Top End Wedding
◎年  代 2019
◎产  地 澳大利亚
◎类  别 喜剧
◎语  言 英语
◎上映日期 2019-01-30(圣丹斯电影节)
◎IMDb评分 7.1/10 from 385 users
◎IMDb链接 http://www.imdb.com/title/tt7555072
◎豆瓣评分 0/10 from 0 users
◎豆瓣链接 https://movie.douban.com/subject/30390696/
◎导  演 韦恩·布莱尔 Wayne Blair
◎编  剧 Miranda Tapsell / Joshua Tyler
◎主  演 格威利姆·李 Gwilym Lee
      凯瑞·福克斯 Kerry Fox
      Miranda Tapsell
      Huw Higginson
      Travis Jeffery
      Shari Sebbens
      Ursula Yovich
      Elaine Crombie
      Matt Crook
      Atmiya Patel


◎标  签 澳洲 | 喜剧 | cinema | Cinema_2019 | 2019Sundance | 2019

◎简  介

  暂无相关剧情介绍
Video
ID : 1
Format : AVC
Format/Info : Advanced Video Codec
Format profile : [email protected]
Format settings : CABAC / 4 Ref Frames
Format settings, CABAC : Yes
Format settings, Reference frames : 4 frames
Codec ID : V_MPEG4/ISO/AVC
Duration : 1 h 41 min
Bit rate : 11.5 Mb/s
Width : 1 920 pixels
Height : 800 pixels
Display aspect ratio : 2.40:1
Frame rate mode : Constant
Frame rate : 24.000 FPS
Color space : YUV
Chroma subsampling : 4:2:0
Bit depth : 8 bits
Scan type : Progressive
Bits/(Pixel*Frame) : 0.312
Stream size : 8.18 GiB (86%)
Title : Top.End.Wedding.2019.1080p.BluRay.x264.DTS-HD.MA.5.1-FGT
Writing library : x264 core 148 r2795M aaa9aa8
Encoding settings : cabac=1 / ref=4 / deblock=1:-2:-2 / analyse=0x3:0x113 / me=umh / subme=9 / psy=1 / psy_rd=1.00:0.15 / mixed_ref=1 / me_range=16 / chroma_me=1 / trellis=2 / 8x8dct=1 / cqm=0 / deadzone=21,11 / fast_pskip=1 / chroma_qp_offset=-3 / threads=24 / lookahead_threads=3 / sliced_threads=0 / nr=0 / decimate=1 / interlaced=0 / bluray_compat=0 / constrained_intra=0 / bframes=3 / b_pyramid=2 / b_adapt=1 / b_bias=0 / direct=3 / weightb=1 / open_gop=0 / weightp=2 / keyint=250 / keyint_min=25 / scenecut=40 / intra_refresh=0 / rc_lookahead=50 / rc=2pass / mbtree=1 / bitrate=11500 / ratetol=1.0 / qcomp=0.60 / qpmin=0 / qpmax=69 / qpstep=4 / cplxblur=20.0 / qblur=0.5 / vbv_maxrate=31250 / vbv_bufsize=31250 / nal_hrd=none / filler=0 / ip_ratio=1.40 / aq=1:1.00
Language : English
Default : Yes
Forced : No

Audio
ID : 2
Format : DTS XLL
Format/Info : Digital Theater Systems
Commercial name : DTS-HD Master Audio
Codec ID : A_DTS
Duration : 1 h 41 min
Bit rate mode : Variable
Bit rate : 1 808 kb/s
Channel(s) : 6 channels
Channel layout : C L R Ls Rs LFE
Sampling rate : 48.0 kHz
Frame rate : 93.750 FPS (512 SPF)
Bit depth : 16 bits
Compression mode : Lossless
Stream size : 1.29 GiB (14%)
Title : Top.End.Wedding.2019.1080p.BluRay.x264.DTS-HD.MA.5.1-FGT
Language : English
Default : Yes
Forced : No

Text #1
ID : 3
Format : UTF-8
Codec ID : S_TEXT/UTF8
Codec ID/Info : UTF-8 Plain Text
Duration : 1 h 38 min
Bit rate : 60 b/s
Count of elements : 1497
Stream size : 43.7 KiB (0%)
Title : English-SRT
Language : English
Default : Yes
Forced : No

Text #2
ID : 4
Format : PGS
Muxing mode : zlib
Codec ID : S_HDMV/PGS
Codec ID/Info : Picture based subtitle format used on BDs/HD-DVDs
Duration : 1 h 39 min
Bit rate : 35.5 kb/s
Count of elements : 2052
Stream size : 25.2 MiB (0%)
Title : English-PGS
Language : English
Default : No
Forced : No

Menu
00:00:00.000 : en:Chapter 1
00:05:50.208 : en:Chapter 2
00:13:15.958 : en:Chapter 3
00:19:35.041 : en:Chapter 4
00:27:10.666 : en:Chapter 5
00:33:18.041 : en:Chapter 6
00:39:59.750 : en:Chapter 7
00:45:17.500 : en:Chapter 8
00:50:07.791 : en:Chapter 9
00:56:39.125 : en:Chapter 10
01:03:19.416 : en:Chapter 11
01:07:54.791 : en:Chapter 12
01:14:48.791 : en:Chapter 13
01:21:05.166 : en:Chapter 14
01:25:57.083 : en:Chapter 15
01:35:50.708 : en:Chapter 16





1 个附件 售价 大小 下载 时间

Top.End.Wedding.2019.1080p.BluRay.x264.DTS-HD.MA.5.1-FGT.torrent 0 金币 47.94K 462 次 6天前

#1楼
发帖时间:2019-08-14 16:49:15   |   回复数:3
blue23
隐世仙人♂
感谢楼主分享
6天前 #2楼
liyouchai
隐世仙人♂
谢谢楼主分享资源
6天前 #3楼
911degrees
隐世仙人♂
非常感谢,谢谢分享
5天前 #4楼
游客组