conanlcg
超级版主

[2013] [其他] [剧情] [BD-1080P] 时空追寻/我会跟着你 I.Will.Follow.You.Down.2013.1080p.BluRay.x264-ROVERS 6.55GB

-->

帖子完整标题:时空追寻/我会跟着你 I.Will.Follow.You.Down.2013.1080p.BluRay.x264-ROVERS 6.55GB




◎译  名 时空追寻 / 我会跟着你 / 我要跟你去 / 时空效应(台) / 跟随(台) / 随你而去
◎片  名 I'll Follow You Down
◎年  代 2013
◎产  地 加拿大
◎类  别 剧情 / 科幻 / 悬疑
◎语  言 英语
◎上映日期 2013-07-28(加拿大)
◎IMDb评分 6.1/10 from 5975 users
◎IMDb链接 http://www.imdb.com/title/tt2048770
◎豆瓣评分 6.1/10 from 465 users
◎豆瓣链接 https://movie.douban.com/subject/10773241/
◎片  长 92分钟
◎导  演 Richie Mehta
◎编  剧 Richie Mehta
◎主  演 吉莲·安德森 Gillian Anderson
      海利·乔·奥斯蒙 Haley Joel Osment
      卢夫斯·塞维尔 Rufus Sewell
      维克多·加博 Victor Garber
      约翰·保罗·拉坦 John Paul Ruttan
      Sarah Manninen
      Sherry Miller
      Brandon Firla
      Susanna Fournier
      Kiara Glasco
      西蒙·雷诺兹 Simon Reynolds
      Laura Miyata
      凯萨琳·布吕耶 Catherine Bruhier
      Jonah Wineberg
      Rupinder Nagra


◎标  签 科幻 | 悬疑 | 加拿大 | 穿越 | 剧情 | 2013 | 电影 | 海利·乔·奥斯蒙

◎简  介

  一名科学家在一趟商务旅程中人间蒸发,令他的老婆及小孩伤心欲绝,然而事过境迁多年之后,已经成年的厄尔(海利乔奥斯蒙 饰演)竟接获神秘线索,发现有方法可以把爸爸带回家。

Video
ID : 1
Format : AVC
Format/Info : Advanced Video Codec
Format profile : [email protected]
Format settings, CABAC : Yes
Format settings, ReFrames : 5 frames
Codec ID : V_MPEG4/ISO/AVC
Duration : 1 h 32 min
Bit rate : 8 600 kb/s
Width : 1 920 pixels
Height : 800 pixels
Display aspect ratio : 2.40:1
Frame rate mode : Constant
Frame rate : 23.976 FPS
Color space : YUV
Chroma subsampling : 4:2:0
Bit depth : 8 bits
Scan type : Progressive
Bits/(Pixel*Frame) : 0.234
Stream size : 5.44 GiB (83%)
Writing library : x264 core 142 r2431 ac76440
Encoding settings : cabac=1 / ref=5 / deblock=1:0:0 / analyse=0x3:0x133 / me=umh / subme=7 / psy=1 / psy_rd=1.00:0.00 / mixed_ref=1 / me_range=16 / chroma_me=1 / trellis=1 / 8x8dct=1 / cqm=0 / deadzone=21,11 / fast_pskip=0 / chroma_qp_offset=-2 / threads=18 / lookahead_threads=3 / sliced_threads=0 / nr=0 / decimate=1 / interlaced=0 / bluray_compat=0 / constrained_intra=0 / bframes=3 / b_pyramid=2 / b_adapt=1 / b_bias=0 / direct=1 / weightb=1 / open_gop=0 / weightp=2 / keyint=250 / keyint_min=23 / scenecut=40 / intra_refresh=0 / rc_lookahead=40 / rc=2pass / mbtree=1 / bitrate=8600 / ratetol=1.0 / qcomp=0.60 / qpmin=0 / qpmax=69 / qpstep=4 / cplxblur=20.0 / qblur=0.5 / ip_ratio=1.40 / aq=1:1.00
Language : English
Default : Yes
Forced : No

Audio
ID : 2
Format : DTS
Format/Info : Digital Theater Systems
Mode : 16
Format settings, Endianness : Big
Codec ID : A_DTS
Duration : 1 h 32 min
Bit rate mode : Constant
Bit rate : 1 509 kb/s
Channel(s) : 6 channels
Channel positions : Front: L C R, Side: L R, LFE
Sampling rate : 48.0 kHz
Frame rate : 93.750 FPS (512 spf)
Bit depth : 24 bits
Compression mode : Lossy
Stream size : 1 002 MiB (15%)
Language : English
Default : Yes
Forced : No

Menu
00:00:00.000 : en:00:00:00.000
00:09:23.772 : en:00:09:23.772
00:17:42.853 : en:00:17:42.853
00:24:43.691 : en:00:24:43.691
00:35:59.866 : en:00:35:59.866
00:43:00.453 : en:00:43:00.453
00:51:39.388 : en:00:51:39.388
00:58:23.959 : en:00:58:23.959
01:06:34.866 : en:01:06:34.866
01:15:38.951 : en:01:15:38.951
01:28:22.589 : en:01:28:22.589




#1楼
发帖时间:2019-07-09 16:03:49   |   回复数:4
911degrees
隐世仙人♂
非常感谢,谢谢分享
10天前 #2楼
liyouchai
隐世仙人♂
谢谢楼主分享资源
10天前 #3楼
mhyzhq
无名小卒
资源呢
10天前 #4楼
zfdd
武林高手
没种
8天前 #5楼
游客组