wsc820113
武林高手

[2019] [欧美] [动作] [BD-1080P] 惊奇队长 Captain.Marvel.2019.Multi.1080p.Blu-ray.HEVC.DTS-HDMA.7.1-DDR 11.9G

-->

◎译  名 惊奇队长 / Marvel队长(港) / 惊奇女士 / 漫威队长
◎片  名 Captain Marvel
◎年  代 2019
◎产  地 美国
◎类  别 动作 / 科幻 / 冒险
◎语  言 英语
◎上映日期 2019-03-08(美国/中国大陆)
◎IMDb评分 7.1/10 from 268698 users
◎IMDb链接 http://www.imdb.com/title/tt4154664
◎豆瓣评分 7.0/10 from 298554 users
◎豆瓣链接 https://movie.douban.com/subject/26213252/
◎片  长 124分钟
◎导  演 安娜·波顿 Anna Boden / 瑞安·弗雷克 Ryan Fleck
◎编  剧 安娜·波顿 Anna Boden / 瑞安·弗雷克 Ryan Fleck / 吉内瓦·德沃莱特-罗宾森 Geneva Dworet-Robertson / 尼科尔·帕尔曼 Nicole Perlman / 梅格·勒福夫 Meg LeFauve
◎主  演 布丽·拉尔森 Brie Larson
      裘德·洛 Jude Law
      塞缪尔·杰克逊 Samuel L. Jackson
      本·门德尔森 Ben Mendelsohn
      安妮特·贝宁 Annette Bening
      麦肯娜·格瑞丝 Mckenna Grace
      克拉克·格雷格 Clark Gregg
      嘉玛·陈 Gemma Chan
      李·佩斯 Lee Pace
      杰曼·翰苏 Djimon Hounsou
      拉什纳·林奇 Lashana Lynch
      阿基拉·阿克巴 Akira Akbar
      科林·福特 Colin Ford
      卓库·莫度 Chuku Modu
      肯内特·米歇尔 Kenneth Mitchell
      罗伯特·卡辛斯基 Robert Kazinsky
      詹姆斯·莫里森 James Morrison
      皮特·普劳泽克 Pete Ploszek
      马修·马希尔 Matthew Maher
      安东尼·莫利纳利 Anthony Molinari
      马修·弗林·贝罗斯 Matthew Flynn Bellows
      加斯顿·达尔莫 Gastón Dalmau
      亚当·哈特 Adam Hart
      Mark Daugherty
      雷尼尔·鲁菲诺 Rayniel Rufino
      约翰·盖蒂尔 John Gettier
      斯坦·李 Stan Lee
      克里斯·埃文斯 Chris Evans
      斯嘉丽·约翰逊 Scarlett Johansson
      马克·鲁弗洛 Mark Ruffalo
      唐·钱德尔 Don Cheadle


◎标  签 漫威 | 超级英雄 | 女性 | 美国 | 科幻 | 2019 | 漫画改编 | 动作

◎简  介 

  在围剿斯克鲁人的战斗中,克里人星际战队成员弗斯(布丽·拉尔森 Brie Larson 饰)不幸成为对方的俘虏。斯克鲁人尝试探究弗斯的记忆,最终发现连弗斯本人都不知道的一段往事,进而也得知名为温迪?劳森博士的女子掌握着他们急于得到的时空引擎。趁对方不备,拥有强大超能力的弗斯摆脱束缚,逃到了代号为C-53的地球,而这里也正是她那段失落的记忆的发生地。未过多久,神盾局探员弗瑞特工(塞缪尔·杰克逊 Samuel L. Jackson 饰)找上门来,而紧随其后的斯克鲁人更是引发了地球人前所未见的大骚动。
在这一过程中,弗瑞特工意识到事态的严重性,并且帮助弗斯认清本来的自己。倔强的弗斯,终于找到了真正需要保护的东西……

◎获奖情况 

  第5届豆瓣电影年度榜单(2018)
  最值得期待的外语电影(提名)


Source : FHD Bluray

Format                                   : Matroska
File size                                : 11.9 GiB
Duration                                 : 2 h 3 min
Overall bit rate mode                    : Variable
Overall bit rate                         : 13.7 Mb/s

Video
Format                                   : HEVC
Format/Info                              : High Efficiency Video Coding
Format profile                           : Main [email protected]@High
Bit rate                                 : 6 921 kb/s
Width                                    : 1 920 pixels
Height                                   : 800 pixels
Bit depth                                : 10 bits
Color primaries                          : BT.709


Audio #1
Format                                   : DTS XLL
Format/Info                              : Digital Theater Systems
Commercial name                          : DTS-HD Master Audio
Codec ID                                 : A_DTS
Duration                                 : 2 h 3 min
Bit rate mode                            : Variable
Bit rate                                 : 4 777 kb/s
Channel(s)                               : 8 channels
Language                                 : English

Audio #2
ID                                       : 3
Format                                   : AC-3
Format/Info                              : Audio Coding 3
Commercial name                          : Dolby Digital
Codec ID                                 : A_AC3
Duration                                 : 2 h 3 min
Bit rate mode                            : Constant
Bit rate                                 : 640 kb/s
Channel(s)                               : 6 channels
Channel layout                           : L R C LFE Ls Rs
Sampling rate                            : 48.0 kHz
Frame rate                               : 31.250 FPS (1536 SPF)
Bit depth                                : 16 bits
Compression mode                         : Lossy
Stream size                              : 566 MiB (5%)
Language                                 : French
Service kind                             : Complete Main
Default                                  : No
Forced                                   : No

Audio #3
ID                                       : 4
Format                                   : AC-3
Format/Info                              : Audio Coding 3
Commercial name                          : Dolby Digital
Codec ID                                 : A_AC3
Duration                                 : 2 h 3 min
Bit rate mode                            : Constant
Bit rate                                 : 640 kb/s
Channel(s)                               : 6 channels
Channel layout                           : L R C LFE Ls Rs
Sampling rate                            : 48.0 kHz
Frame rate                               : 31.250 FPS (1536 SPF)
Bit depth                                : 16 bits
Compression mode                         : Lossy
Stream size                              : 566 MiB (5%)
Language                                 : Spanish
Service kind                             : Complete Main
Default                                  : No
Forced                                   : No

Audio #4
ID                                       : 5
Format                                   : AC-3
Format/Info                              : Audio Coding 3
Commercial name                          : Dolby Digital
Codec ID                                 : A_AC3
Duration                                 : 2 h 3 min
Bit rate mode                            : Constant
Bit rate                                 : 640 kb/s
Channel(s)                               : 6 channels
Channel layout                           : L R C LFE Ls Rs
Sampling rate                            : 48.0 kHz
Frame rate                               : 31.250 FPS (1536 SPF)
Bit depth                                : 16 bits
Compression mode                         : Lossy
Stream size                              : 566 MiB (5%)
Language                                 : Portuguese


       


1 个附件 售价 大小 下载 时间

Captain Marvel 2019.Multi.1080p.Blu-ray.HEVC.DTS-HDMA.7.1-DDR.torrent 0 金币 15.87K 3878 次 4月前

#1楼
发帖时间:2019-06-20 19:23:24   |   回复数:6
liyouchai
隐世仙人♂
谢谢楼主分享资源
4月前 #2楼
jokingcheung
一代宗师
谢谢分享
4月前 #3楼
911degrees
隐世仙人♂
非常感谢,谢谢分享
3月前 #4楼
ralf_zyq
武林高手
感谢分享
收下了
3月前 #5楼
hebhsj
武林高手
谢谢分享
3月前 #6楼
ahsayuni
武林高手
感谢楼主分享!!
3月前 #7楼
游客组