conanlcg
超级版主

[2018] [日本] [动作] [BD-1080P] 哥斯拉:决战之都/GODZILLA 第二章 Godzilla.City.on.the.Edge.of.Battle.2018.JAPANESE.1080p.Bl

-->

帖子完整标题:哥斯拉:决战之都/GODZILLA 第二章 Godzilla.City.on.the.Edge.of.Battle.2018.JAPANESE.1080p.BluRay.x264.DTS-WiKi 8.79GB




◎译  名 哥斯拉:决战之都 / GODZILLA 第二章 / 哥斯拉:决战机动增殖都市
◎片  名 GODZILLA 決戦機動増殖都市
◎年  代 2018
◎产  地 日本
◎类  别 动作 / 科幻 / 动画
◎语  言 日语
◎上映日期 2018-05-18(日本)
◎IMDb评分 5.8/10 from 3246 users
◎IMDb链接 http://www.imdb.com/title/tt8015080
◎豆瓣评分 6.6/10 from 4220 users
◎豆瓣链接 https://movie.douban.com/subject/27126349/
◎片  长 101分钟
◎导  演 静野孔文 Kobun Shizuno / 濑下宽之 Hiroyuki Seshita
◎编  剧 虚渊玄 Gen Urobuchi / 村井贞之 Sadayuki Murai
◎主  演 宫野真守 Mamoru Miyano
      梶裕贵 Y?ki Kaji
      中井和哉 Kazuya Nakai
      樱井孝宏 Takahiro Sakurai
      杉田智和 Tomokazu Sugita
      三宅健太 Kenta Miyake
      花泽香菜 Kana Hanazawa
      诹访部顺一 Junichi Suwabe
      小泽亚李 Ari Ozawa
      山路和弘 Kazuhiro Yamaji
      堀内贤雄 Ken'y? Horiuchi


◎标  签 哥斯拉 | 动画 | 日本 | 科幻 | 2018 | 日本动画 | 剧场版 | 虚渊玄

◎简  介

  影片为[哥斯拉:怪兽行星]续作。人类要从哥斯拉手中夺回地球的战斗仍在继续。而打败哥斯拉的关键却是某神秘机械武器,而该武器早在两万年前就已经丢失。

Video
ID : 1
Format : AVC
Format/Info : Advanced Video Codec
Format profile : [email protected]
Format settings : CABAC / 4 Ref Frames
Format settings, CABAC : Yes
Format settings, ReFrames : 4 frames
Codec ID : V_MPEG4/ISO/AVC
Duration : 1 h 40 min
Bit rate : 11.0 Mb/s
Width : 1 920 pixels
Height : 1 080 pixels
Display aspect ratio : 16:9
Frame rate mode : Constant
Frame rate : 23.976 (24000/1001) FPS
Color space : YUV
Chroma subsampling : 4:2:0
Bit depth : 8 bits
Scan type : Progressive
Bits/(Pixel*Frame) : 0.221
Stream size : 7.70 GiB (88%)
Writing library : x264 core 130 r2273 b3065e6
Encoding settings : cabac=1 / ref=4 / deblock=1:-1:-1 / analyse=0x3:0x113 / me=umh / subme=11 / psy=1 / psy_rd=1.00:0.00 / mixed_ref=1 / me_range=32 / chroma_me=1 / trellis=2 / 8x8dct=1 / cqm=0 / deadzone=21,11 / fast_pskip=0 / chroma_qp_offset=-4 / threads=12 / lookahead_threads=2 / sliced_threads=0 / nr=0 / decimate=0 / interlaced=0 / bluray_compat=0 / constrained_intra=0 / bframes=8 / b_pyramid=2 / b_adapt=2 / b_bias=0 / direct=3 / weightb=1 / open_gop=0 / weightp=2 / keyint=250 / keyint_min=23 / scenecut=40 / intra_refresh=0 / rc=2pass / mbtree=0 / bitrate=11000 / ratetol=1.0 / qcomp=0.60 / qpmin=0 / qpmax=69 / qpstep=4 / cplxblur=20.0 / qblur=0.5 / ip_ratio=1.40 / pb_ratio=1.30 / aq=1:0.95
Language : English
Default : Yes
Forced : No

Audio
ID : 2
Format : DTS
Format/Info : Digital Theater Systems
Codec ID : A_DTS
Duration : 1 h 40 min
Bit rate mode : Constant
Bit rate : 1 509 kb/s
Channel(s) : 6 channels
Channel layout : C L R Ls Rs LFE
Sampling rate : 48.0 kHz
Frame rate : 93.750 FPS (512 SPF)
Bit depth : 24 bits
Compression mode : Lossy
Stream size : 1.06 GiB (12%)
Title : 日语
Language : Japanese
Default : Yes
Forced : No

Text
ID : 3
Format : UTF-8
Codec ID : S_TEXT/UTF8
Codec ID/Info : UTF-8 Plain Text
Duration : 1 h 39 min
Bit rate : 68 b/s
Count of elements : 1379
Stream size : 50.3 KiB (0%)
Language : English
Default : Yes
Forced : Yes





1 个附件 售价 大小 下载 时间

Godzilla.City.on.the.Edge.of.Battle.2018.JAPANESE.1080p.BluRay.x264.DTS-WiKi.torrent 0 金币 44.54K 2786 次 1月前

#1楼
发帖时间:2019-06-15 02:01:54   |   回复数:3
911degrees
隐世仙人♂
非常感谢,谢谢分享
1月前 #2楼
liyouchai
隐世仙人♂
谢谢楼主分享资源
1月前 #3楼
tanchoohoon
武林盟主
感谢楼主的无私分享
1月前 #4楼
游客组