conanlcg
超级版主

[更 早] [其他] [动作] [BD-1080P] 捍卫机密/约翰尼记忆术 Johnny.Mnemonic.1995.1080p.BluRay.x264-MOOVEE 6.55GB

-->

帖子完整标题:捍卫机密/约翰尼记忆术 Johnny.Mnemonic.1995.1080p.BluRay.x264-MOOVEE 6.55GB




◎译  名 捍卫机密 / 约翰尼记忆术 / 非常任务 / 非常特务
◎片  名 Johnny Mnemonic
◎年  代 1995
◎产  地 加拿大 / 美国
◎类  别 动作 / 科幻
◎语  言 英语 / 日语
◎上映日期 1995-04-15
◎IMDb评分 5.6/10 from 62409 users
◎IMDb链接 http://www.imdb.com/title/tt0113481
◎豆瓣评分 6.1/10 from 1609 users
◎豆瓣链接 https://movie.douban.com/subject/1298111/
◎片  长 Japan: 107 分钟(video version)
◎导  演 Robert Longo
◎编  剧 William Gibson
◎主  演 基努·李维斯 Keanu Reeves
      戴安· 梅尔 Dina Meyer
      北野武 Takeshi Kitano


◎标  签 科幻 | 美国 | KeanuReeves | 动作 | 北野武 | 1995 | 美国电影 | 基鲁·李维斯

◎简  介

  公元2021年,资料除了透过电脑输送外,还可利用人脑运输。专业运输员尊尼为了运送更多资料,不惜洗去自己的记忆。一次任务中,尊尼被客户输入过量资料,若他不在二十小时内找到输出密码,他便会倒毙。另一方面,日本集团为了夺取他脑内的资料,也对他展开一场大追杀。

Video
ID : 1
Format : AVC
Format/Info : Advanced Video Codec
Format profile : [email protected]
Format settings, CABAC : Yes
Format settings, ReFrames : 4 frames
Muxing mode : Header stripping
Codec ID : V_MPEG4/ISO/AVC
Duration : 1 h 36 min
Bit rate : 8 196 kb/s
Width : 1 920 pixels
Height : 1 040 pixels
Display aspect ratio : 1.85:1
Frame rate mode : Constant
Frame rate : 23.976 (24000/1001) FPS
Color space : YUV
Chroma subsampling : 4:2:0
Bit depth : 8 bits
Scan type : Progressive
Bits/(Pixel*Frame) : 0.171
Stream size : 5.40 GiB (82%)
Writing library : x264 core 115 r1995 c1e60b9
Encoding settings : cabac=1 / ref=4 / deblock=1:0:0 / analyse=0x3:0x133 / me=umh / subme=7 / psy=1 / psy_rd=1.00:0.00 / mixed_ref=1 / me_range=16 / chroma_me=1 / trellis=1 / 8x8dct=1 / cqm=0 / deadzone=21,11 / fast_pskip=0 / chroma_qp_offset=-2 / threads=18 / sliced_threads=0 / nr=0 / decimate=1 / interlaced=0 / bluray_compat=0 / constrained_intra=0 / bframes=3 / b_pyramid=2 / b_adapt=1 / b_bias=0 / direct=1 / weightb=1 / open_gop=0 / weightp=2 / keyint=250 / keyint_min=23 / scenecut=40 / intra_refresh=0 / rc_lookahead=40 / rc=2pass / mbtree=1 / bitrate=8196 / ratetol=1.0 / qcomp=0.60 / qpmin=0 / qpmax=69 / qpstep=4 / cplxblur=20.0 / qblur=0.5 / ip_ratio=1.40 / aq=1:1.00
Language : English
Default : Yes
Forced : No

Audio
ID : 2
Format : DTS
Format/Info : Digital Theater Systems
Mode : 16
Format settings, Endianness : Big
Muxing mode : Header stripping
Codec ID : A_DTS
Duration : 1 h 36 min
Bit rate mode : Constant
Bit rate : 1 509 kb/s
Channel(s) : 6 channels
Channel positions : Front: L C R, Side: L R, LFE
Sampling rate : 48.0 kHz
Frame rate : 93.750 FPS (512 spf)
Bit depth : 24 bits
Compression mode : Lossy
Stream size : 1.02 GiB (16%)
Default : Yes
Forced : No

Text
ID : 3
Format : UTF-8
Codec ID : S_TEXT/UTF8
Codec ID/Info : UTF-8 Plain Text
Title : English SHD
Language : English
Default : No
Forced : No





1 个附件 售价 大小 下载 时间

Johnny.Mnemonic.1995.1080p.BluRay.x264-MOOVEE.torrent 0 金币 66.11K 532 次 4月前

#1楼
发帖时间:2019-06-14 10:52:48   |   回复数:2
911degrees
隐世仙人♂
非常感谢,谢谢分享
4月前 #2楼
liyouchai
隐世仙人♂
谢谢楼主分享资源
4月前 #3楼
游客组