conanlcg
超级版主

[更 早] [欧美] [动作] [BD-1080P] 洛杉矶大逃亡 Escape.From.L.A.1996.1080p.BluRay.x264-LCHD 6.56GB

-->

帖子完整标题:洛杉矶大逃亡 Escape.From.L.A.1996.1080p.BluRay.x264-LCHD 6.56GB




◎译  名 洛杉矶大逃亡 / Escape from L.A. / John Carpenter's Escape from L.A. / 逃出洛杉矶
◎片  名 Escape from L.A.
◎年  代 1996
◎产  地 美国
◎类  别 动作 / 科幻 / 惊悚 / 冒险
◎语  言 英语
◎上映日期 1996-10-10
◎IMDb评分 5.7/10 from 64245 users
◎IMDb链接 http://www.imdb.com/title/tt0116225
◎豆瓣评分 6.5/10 from 1656 users
◎豆瓣链接 https://movie.douban.com/subject/1293137/
◎片  长 101 分钟
◎导  演 约翰·卡朋特 John Carpenter
◎编  剧 黛布拉·希尔 Debra Hill / 约翰·卡朋特 John Carpenter / 库尔特·拉塞尔 Kurt Russell
◎主  演 库尔特·拉塞尔 Kurt Russell
      史蒂夫·布西密 Steve Buscemi
      彼得·方达 Peter Fonda
      克里夫·罗伯逊 Cliff Robertson
      帕姆·格里尔 Pam Grier
      A.J. Langer


◎标  签 科幻 | 美国 | 动作 | 1996 | 美国电影 | 约翰·卡朋特 | JohnCarpenter | John_Carpenter

◎简  介

  2013年,美国洛杉矶发生9.6级大地震,并与美国大陆分裂,成为小岛。美革命分子在岛上成立一支叛变军队,而美国总统更将所有罪犯放遂在这三不管的九反之地。然而总统女儿亦被叛军掳走,因此总统找来斯内克潜入城内,救回女儿并将开启核弹的钥匙夺回

Video
ID : 1
Format : AVC
Format/Info : Advanced Video Codec
Format profile : [email protected]
Format settings, CABAC : Yes
Format settings, ReFrames : 5 frames
Codec ID : V_MPEG4/ISO/AVC
Duration : 1 h 40 min
Bit rate : 8 684 kb/s
Width : 1 920 pixels
Height : 816 pixels
Display aspect ratio : 2.35:1
Frame rate mode : Constant
Frame rate : 23.976 (24000/1001) FPS
Color space : YUV
Chroma subsampling : 4:2:0
Bit depth : 8 bits
Scan type : Progressive
Bits/(Pixel*Frame) : 0.231
Stream size : 5.97 GiB (91%)
Writing library : x264 core 94 r1570 d9db8b3
Encoding settings : cabac=1 / ref=5 / deblock=1:-1:-1 / analyse=0x3:0x113 / me=umh / subme=7 / psy=1 / psy_rd=1.00:0.00 / mixed_ref=1 / me_range=16 / chroma_me=1 / trellis=2 / 8x8dct=1 / cqm=0 / deadzone=21,11 / fast_pskip=1 / chroma_qp_offset=-2 / threads=6 / sliced_threads=0 / nr=0 / decimate=1 / interlaced=0 / constrained_intra=0 / bframes=3 / b_pyramid=2 / b_adapt=2 / b_bias=0 / direct=3 / wpredb=1 / wpredp=2 / keyint=250 / keyint_min=25 / scenecut=40 / intra_refresh=0 / rc_lookahead=40 / rc=2pass / mbtree=1 / bitrate=8684 / ratetol=1.0 / qcomp=0.60 / qpmin=10 / qpmax=51 / qpstep=4 / cplxblur=20.0 / qblur=0.5 / vbv_maxrate=50000 / vbv_bufsize=50000 / ip_ratio=1.40 / aq=1:1.00 / nal_hrd=none
Language : English
Default : Yes
Forced : Yes

Audio
ID : 2
Format : AC-3
Format/Info : Audio Coding 3
Format settings, Endianness : Big
Codec ID : A_AC3
Duration : 1 h 40 min
Bit rate mode : Constant
Bit rate : 640 kb/s
Channel(s) : 6 channels
Channel positions : Front: L C R, Side: L R, LFE
Sampling rate : 48.0 kHz
Frame rate : 31.250 FPS (1536 spf)
Bit depth : 16 bits
Compression mode : Lossy
Stream size : 461 MiB (7%)
Language : English
Service kind : Complete Main
Default : Yes
Forced : Yes





1 个附件 售价 大小 下载 时间

Escape.From.L.A.1996.1080p.BluRay.x264-LCHD.torrent 0 金币 66.07K 616 次 7天前

#1楼
发帖时间:2019-06-13 02:37:21   |   回复数:3
911degrees
隐世仙人♂
非常感谢,谢谢分享
7天前 #2楼
yangbo83222179
一代宗师
谢谢楼主分享,支持一下
7天前 #3楼
liyouchai
超凡入圣№
谢谢楼主分享资源
6天前 #4楼
游客组