conanlcg
超级版主

[2012] [欧美] [剧情] [BD-1080P] 希区柯克/希区柯克与《精神病患者》 Hitchcock.2012.1080p.BluRay.x264-SECTOR7 6.55GB

-->

帖子完整标题:希区柯克/希区柯克与《精神病患者》 Hitchcock.2012.1080p.BluRay.x264-SECTOR7 6.55GB




◎译  名 希区柯克 / 希区柯克与《精神病患者》 / 惊悚大师: 希区考克(台) / 惊栗大师:希治阁(港)
◎片  名 Hitchcock
◎年  代 2012
◎产  地 美国
◎类  别 剧情 / 传记
◎语  言 英语
◎上映日期 2012-11-23(美国)
◎IMDb评分 6.8/10 from 68320 users
◎IMDb链接 http://www.imdb.com/title/tt0975645
◎豆瓣评分 6.6/10 from 10775 users
◎豆瓣链接 https://movie.douban.com/subject/3158449/
◎片  长 98分钟
◎导  演 萨沙·杰瓦西 Sacha Gervasi
◎编  剧 约翰·J·麦克劳克林 John J. McLaughlin / Stephen Rebello
◎主  演 安东尼·霍普金斯 Anthony Hopkins
      海伦·米伦 Helen Mirren
      斯嘉丽·约翰逊 Scarlett Johansson
      詹姆斯·达西 James D'Arcy
      杰西卡·贝尔 Jessica Biel
      托妮·克莱特 Toni Collette
      拉尔夫·马奇奥 Ralph Macchio
      迈克尔·斯图巴 Michael Stuhlbarg


◎标  签 传记 | 希区柯克 | 美国 | 2012 | ScarlettJohansson | 美国电影 | AnthonyHopkins | HelenMirren

◎简  介

  本片根据史蒂芬·雷贝洛出版于1998年的同名纪实文学改编。
记录了希区柯克(安东尼·霍普金斯 Anthony Hopkins 饰)为《精神病患者》的拍摄所付出的种种努力。在电影的拍摄过程中,他与妻子阿尔玛(海伦·米伦 Helen Mirren 饰)的关系也变成了大家关注的焦点。
此后《精神病患者》成为了希区柯克经典代表作之一,该片讲述了女演员珍妮特·李(斯嘉丽·约翰逊 Scarlett Johansson)扮演的女秘书Marion,在卷走了老板的钱之后逃到一家偏僻的汽车旅馆,结果被由安东尼·珀金斯(詹姆斯·达西 James D’Arcy 饰)演的有精神分裂症的旅店老板Norman残忍杀死。她在片中惊恐尖叫的场景已经成为电影史上最让人难以忘记的画面之一,她也因此获得了当年金球奖和奥斯卡最佳女配角奖的提名。

◎获奖情况

  第85届奥斯卡金像奖(2013)
  最佳化妆与发型设计(提名) 霍华德·伯杰 / Peter Montagna / Martin Samuel

  第70届金球奖(2013)
  电影类 剧情片最佳女主角(提名) 海伦·米伦

  第19届美国演员工会奖(2013)
  电影奖 最佳女主角(提名) 海伦·米伦

  第11届华盛顿影评人协会奖(2012)
  最佳女主角(提名) 海伦·米伦

  第12届凤凰城影评人协会奖(2012)
  最佳男主角(提名) 安东尼·霍普金斯
  最佳原创配乐(提名) 丹尼·艾夫曼



Video
ID : 1
Format : AVC
Format/Info : Advanced Video Codec
Format profile : [email protected]
Format settings, CABAC : Yes
Format settings, ReFrames : 5 frames
Codec ID : V_MPEG4/ISO/AVC
Duration : 1 h 38 min
Bit rate : 8 028 kb/s
Width : 1 920 pixels
Height : 800 pixels
Display aspect ratio : 2.40:1
Frame rate mode : Constant
Frame rate : 23.976 (24000/1001) FPS
Color space : YUV
Chroma subsampling : 4:2:0
Bit depth : 8 bits
Scan type : Progressive
Bits/(Pixel*Frame) : 0.218
Stream size : 5.39 GiB (82%)
Writing library : x264 core 130 r2273 b3065e6
Encoding settings : cabac=1 / ref=5 / deblock=1:0:0 / analyse=0x3:0x133 / me=umh / subme=7 / psy=1 / psy_rd=1.00:0.00 / mixed_ref=1 / me_range=16 / chroma_me=1 / trellis=1 / 8x8dct=1 / cqm=0 / deadzone=21,11 / fast_pskip=0 / chroma_qp_offset=-2 / threads=24 / lookahead_threads=4 / sliced_threads=0 / nr=0 / decimate=1 / interlaced=0 / bluray_compat=0 / constrained_intra=0 / bframes=3 / b_pyramid=2 / b_adapt=1 / b_bias=0 / direct=1 / weightb=1 / open_gop=0 / weightp=2 / keyint=250 / keyint_min=23 / scenecut=40 / intra_refresh=0 / rc=2pass / mbtree=0 / bitrate=8028 / ratetol=1.0 / qcomp=0.60 / qpmin=0 / qpmax=69 / qpstep=4 / cplxblur=20.0 / qblur=0.5 / ip_ratio=1.40 / pb_ratio=1.30 / aq=1:1.00
Language : English
Default : Yes
Forced : No

Audio
ID : 2
Format : DTS
Format/Info : Digital Theater Systems
Mode : 16
Format settings, Endianness : Big
Codec ID : A_DTS
Duration : 1 h 38 min
Bit rate mode : Constant
Bit rate : 1 509 kb/s
Channel(s) : 6 channels
Channel positions : Front: L C R, Side: L R, LFE
Sampling rate : 48.0 kHz
Frame rate : 93.750 FPS (512 spf)
Bit depth : 24 bits
Compression mode : Lossy
Stream size : 1.04 GiB (16%)
Language : English
Default : Yes
Forced : No

Text
ID : 3
Format : UTF-8
Codec ID : S_TEXT/UTF8
Codec ID/Info : UTF-8 Plain Text
Language : English
Default : No
Forced : No

Menu
00:00:00.000 : en:00:00:00.000
00:02:26.730 : en:00:02:26.730
00:05:17.108 : en:00:05:17.108
00:08:41.146 : en:00:08:41.146
00:12:26.162 : en:00:12:26.162
00:14:41.380 : en:00:14:41.380
00:19:07.396 : en:00:19:07.396
00:20:56.839 : en:00:20:56.839
00:23:48.677 : en:00:23:48.677
00:25:14.221 : en:00:25:14.221
00:27:13.423 : en:00:27:13.423
00:31:10.452 : en:00:31:10.452
00:32:15.809 : en:00:32:15.809
00:34:21.726 : en:00:34:21.726
00:37:30.123 : en:00:37:30.123
00:39:06.553 : en:00:39:06.553
00:43:22.975 : en:00:43:22.975
00:45:50.998 : en:00:45:50.998
00:49:19.498 : en:00:49:19.498
00:52:54.797 : en:00:52:54.797
00:58:12.072 : en:00:58:12.072
01:00:32.838 : en:01:00:32.838
01:03:56.458 : en:01:03:56.458
01:10:03.866 : en:01:10:03.866
01:15:35.114 : en:01:15:35.114
01:19:40.818 : en:01:19:40.818
01:22:38.495 : en:01:22:38.495
01:23:54.238 : en:01:23:54.238
01:25:57.069 : en:01:25:57.069
01:28:13.413 : en:01:28:13.413
01:29:46.131 : en:01:29:46.131
01:31:38.493 : en:01:31:38.493





1 个附件 售价 大小 下载 时间

Hitchcock.2012.1080p.BluRay.x264-SECTOR7.torrent 0 金币 66.05K 581 次 4天前

#1楼
发帖时间:2019-06-13 02:31:21   |   回复数:3
liyouchai
超凡入圣№
谢谢楼主分享资源
4天前 #2楼
911degrees
隐世仙人♂
非常感谢,谢谢分享
4天前 #3楼
chulps
一代宗师
ddd
4天前 #4楼
游客组