conanlcg
超级版主

[更 早] [欧美] [剧情] [BD-1080P] 黑白游龙/白人不会跳 White.Men.Cant.Jump.1992.UNRATED.1080p.BluRay.X264-AMIABLE 8.74GB

-->

帖子完整标题:黑白游龙/白人不会跳 White.Men.Cant.Jump.1992.UNRATED.1080p.BluRay.X264-AMIABLE 8.74GB




◎译  名 黑白游龙 / 白人不会跳
◎片  名 White Men Can't Jump
◎年  代 1992
◎产  地 美国
◎类  别 剧情 / 喜剧 / 运动
◎语  言 英语
◎上映日期 1992-03-27
◎IMDb评分 6.7/10 from 69072 users
◎IMDb链接 http://www.imdb.com/title/tt0105812
◎豆瓣评分 7.6/10 from 1504 users
◎豆瓣链接 https://movie.douban.com/subject/1304629/
◎片  长 115 分钟
◎导  演 罗恩·谢尔顿 Ron Shelton
◎编  剧 罗恩·谢尔顿 Ron Shelton
◎主  演 韦斯利·斯奈普斯 Wesley Snipes
      伍迪·哈里森 Woody Harrelson
      罗西·培瑞兹 Rosie Perez


◎标  签 篮球 | 美国 | 喜剧 | 体育 | 1992 | 黑白游龙 | 美国电影 | basketball

◎简  介

  比利(Woody Harrelson)和希德尼(Wesley Snipes)是一对爱打篮球的难兄难弟。希德尼有一张看起来愚笨的脸,和松垮邋遢的穿著,然而这正是比利用来干下他们俩此生最大骗局的利器,看他们如何用高超的球技,高明的骗术,来愚弄镇上的每一个傻瓜.


Video
ID : 1
Format : AVC
Format/Info : Advanced Video Codec
Format profile : [email protected]
Format settings : CABAC / 4 Ref Frames
Format settings, CABAC : Yes
Format settings, ReFrames : 4 frames
Codec ID : V_MPEG4/ISO/AVC
Duration : 1 h 56 min
Bit rate : 9 205 kb/s
Width : 1 920 pixels
Height : 1 040 pixels
Display aspect ratio : 1.85:1
Frame rate mode : Constant
Frame rate : 23.976 (24000/1001) FPS
Color space : YUV
Chroma subsampling : 4:2:0
Bit depth : 8 bits
Scan type : Progressive
Bits/(Pixel*Frame) : 0.192
Stream size : 7.34 GiB (84%)
Writing library : x264 core 128 r2216 198a7ea
Encoding settings : cabac=1 / ref=4 / deblock=1:0:0 / analyse=0x3:0x113 / me=umh / subme=8 / psy=1 / psy_rd=1.00:0.00 / mixed_ref=1 / me_range=16 / chroma_me=1 / trellis=1 / 8x8dct=1 / cqm=0 / deadzone=21,11 / fast_pskip=1 / chroma_qp_offset=-2 / threads=12 / lookahead_threads=2 / sliced_threads=0 / nr=0 / decimate=1 / interlaced=0 / bluray_compat=0 / constrained_intra=0 / bframes=3 / b_pyramid=2 / b_adapt=2 / b_bias=0 / direct=3 / weightb=1 / open_gop=0 / weightp=2 / keyint=240 / keyint_min=24 / scenecut=40 / intra_refresh=0 / rc_lookahead=50 / rc=2pass / mbtree=1 / bitrate=9205 / ratetol=1.0 / qcomp=0.60 / qpmin=0 / qpmax=69 / qpstep=4 / cplxblur=20.0 / qblur=0.5 / ip_ratio=1.40 / aq=1:1.00
Language : English
Default : Yes
Forced : No

Audio
ID : 2
Format : DTS
Format/Info : Digital Theater Systems
Codec ID : A_DTS
Duration : 1 h 56 min
Bit rate mode : Constant
Bit rate : 1 509 kb/s
Channel(s) : 6 channels
Channel positions : Front: L C R, Side: L R, LFE
Sampling rate : 48.0 kHz
Frame rate : 93.750 FPS (512 SPF)
Bit depth : 24 bits
Compression mode : Lossy
Stream size : 1.23 GiB (14%)
Language : English
Default : Yes
Forced : No

Text
ID : 3
Format : UTF-8
Codec ID : S_TEXT/UTF8
Codec ID/Info : UTF-8 Plain Text
Language : English
Default : No
Forced : No

Menu
00:00:00.000 : en:00:00:00.000
00:04:34.816 : en:00:04:34.816
00:09:00.123 : en:00:09:00.123
00:19:00.681 : en:00:19:00.681
00:24:25.464 : en:00:24:25.464
00:31:06.865 : en:00:31:06.865
00:36:15.006 : en:00:36:15.006
00:43:21.224 : en:00:43:21.224
00:50:48.212 : en:00:50:48.212
00:58:04.189 : en:00:58:04.189
01:04:55.266 : en:01:04:55.266
01:10:32.562 : en:01:10:32.562
01:14:12.156 : en:01:14:12.156
01:23:14.072 : en:01:23:14.072
01:28:26.676 : en:01:28:26.676
01:33:12.212 : en:01:33:12.212
01:36:36.082 : en:01:36:36.082
01:42:31.270 : en:01:42:31.270
01:47:32.738 : en:01:47:32.738
01:52:41.964 : en:01:52:41.964





1 个附件 售价 大小 下载 时间

White.Men.Cant.Jump.1992.UNRATED.1080p.BluRay.X264-AMIABLE.torrent 0 金币 87.96K 413 次 3月前

#1楼
发帖时间:2019-06-13 02:09:22   |   回复数:4
liyouchai
隐世仙人♂
谢谢楼主分享资源
3月前 #2楼
911degrees
隐世仙人♂
非常感谢,谢谢分享
3月前 #3楼
751qscwad
一派掌门
不知道有没有中文字幕啊,但是也要感谢楼主一下
3月前 #4楼
751qscwad
一派掌门
希望楼主发一下这一类篮球题材的电影,以前我有很多,但是上一个硬盘爆了,谢谢
3月前 #5楼
游客组