conanlcg
超级版主

[更 早] [香港] [剧情] [BD-1080P] 烈火战车 Full.Throttle.1995.1080p.BluRay.x264-aBD 7.94GB

-->

帖子完整标题:烈火战车 Full.Throttle.1995.1080p.BluRay.x264-aBD 7.94GB




◎译  名 Chariots Of Fire / Full Throttle / 暴走战士
◎片  名 烈火战车
◎年  代 1995
◎产  地 香港
◎类  别 剧情 / 动作
◎语  言 粤语
◎上映日期 1995-12-14(香港)
◎IMDb评分 6.7/10 from 457 users
◎IMDb链接 http://www.imdb.com/title/tt0113651
◎豆瓣评分 6.8/10 from 8962 users
◎豆瓣链接 https://movie.douban.com/subject/1295316/
◎片  长 108分钟
◎导  演 尔冬升 Tung-Shing Yee
◎编  剧 罗志良 Chi-Leung Law / 尔冬升 Tung-Shing Yee
◎主  演 刘德华 Andy Lau
      梁咏琪 Gigi Leung
      吴大维 David Wu
      秦沛 Paul Chun
      钱嘉乐 Kar Lok Chin
      徐锦江 Elvis Tsui
      柳影紅 Ying-Hung Lau
      夏萍 Ping Ha


◎标  签 刘德华 | 香港 | 尔冬升 | 香港电影 | 梁咏琪 | 赛车 | 爱情 | 动作

◎简  介

  阿祖(刘德华 饰)母亲逝世后,父亲(秦沛 饰)管教方法不当,父子俩的关系疏离。阿祖离开家独自生活,生活状况并不如意,幸好有女友阿仪(梁咏琪 饰)在旁鼓励照顾。阿祖一向喜爱赛电单车,但他性格要强,一次与父亲车队中的大伟(吴大伟 饰)比赛,结果阿祖在比赛中受伤了,昏迷了十天。女友悉心照顾并劝他以后不要再赛车了,于是阿祖康复后便决定放弃赛车,好好经营修车店。可是好友嘉乐(钱嘉乐 饰)在一次与大伟的比赛中身亡,事件令阿祖的初衷改变了,阿仪却失望离去……

◎获奖情况

  第32届台北金马影展(1995)
  金马奖 最佳视觉效果(提名) 曾景祥

  第15届香港电影金像奖(1996)
  最佳电影(提名) 陈望华
  最佳导演(提名) 尔冬升
  最佳编剧(提名) 尔冬升 / 罗志良
  最佳男主角(提名) 刘德华
  最佳男配角(提名) 钱嘉乐
  最佳女配角(提名) 夏萍
  最佳新演员(提名) 梁咏琪
  最佳剪接 邝志良
  最佳动作设计(提名) 罗礼贤
  最佳原创电影歌曲(提名) 刘德华



Video
ID : 1
Format : AVC
Format/Info : Advanced Video Codec
Format profile : [email protected]
Format settings : CABAC / 4 Ref Frames
Format settings, CABAC : Yes
Format settings, ReFrames : 4 frames
Codec ID : V_MPEG4/ISO/AVC
Duration : 1 h 48 min
Bit rate : 9 813 kb/s
Width : 1 920 pixels
Height : 1 032 pixels
Display aspect ratio : 1.85:1
Frame rate mode : Constant
Frame rate : 24.000 FPS
Color space : YUV
Chroma subsampling : 4:2:0
Bit depth : 8 bits
Scan type : Progressive
Bits/(Pixel*Frame) : 0.206
Stream size : 7.30 GiB (92%)
Writing library : x264 core 112 r1834 a51816a
Encoding settings : cabac=1 / ref=4 / deblock=1:-1:-1 / analyse=0x3:0x113 / me=umh / subme=7 / psy=1 / psy_rd=1.00:0.00 / mixed_ref=1 / me_range=16 / chroma_me=1 / trellis=1 / 8x8dct=1 / cqm=0 / deadzone=21,11 / fast_pskip=1 / chroma_qp_offset=-2 / threads=12 / sliced_threads=0 / nr=0 / decimate=1 / interlaced=0 / constrained_intra=0 / bframes=3 / b_pyramid=2 / b_adapt=2 / b_bias=0 / direct=3 / weightb=1 / open_gop=0 / weightp=2 / keyint=250 / keyint_min=24 / scenecut=40 / intra_refresh=0 / rc_lookahead=40 / rc=2pass / mbtree=1 / bitrate=9813 / ratetol=1.0 / qcomp=0.60 / qpmin=0 / qpmax=51 / qpstep=4 / cplxblur=20.0 / qblur=0.5 / vbv_maxrate=50000 / vbv_bufsize=50000 / ip_ratio=1.40 / aq=1:1.00 / nal_hrd=none
Language : Chinese
Default : Yes
Forced : Yes

Audio
ID : 2
Format : AC-3
Format/Info : Audio Coding 3
Commercial name : Dolby Digital
Codec ID : A_AC3
Duration : 1 h 48 min
Bit rate mode : Constant
Bit rate : 640 kb/s
Channel(s) : 6 channels
Channel layout : L R C LFE Ls Rs
Sampling rate : 48.0 kHz
Frame rate : 31.250 FPS (1536 SPF)
Bit depth : 16 bits
Compression mode : Lossy
Stream size : 498 MiB (6%)
Language : Chinese
Service kind : Complete Main
Default : Yes
Forced : Yes

Text
ID : 3
Format : UTF-8
Codec ID : S_TEXT/UTF8
Codec ID/Info : UTF-8 Plain Text
Language : English
Default : Yes
Forced : No





1 个附件 售价 大小 下载 时间

Full.Throttle.1995.1080p.BluRay.x264-aBD.torrent 0 金币 40.21K 1323 次 4天前

#1楼
发帖时间:2019-06-13 01:41:19   |   回复数:4
liyouchai
超凡入圣№
谢谢楼主分享资源
4天前 #2楼
jokingcheung
一代宗师
谢谢分享
4天前 #3楼
911degrees
隐世仙人♂
非常感谢,谢谢分享
4天前 #4楼
pokuan909
小有名气
非常感谢,谢谢分享
4天前 #5楼
游客组