conanlcg
超级版主

[2009] [日本] [剧情] [BD-1080P] 天堂之门 Heavens.Door.2009.1080p.BluRay.x264-SSF 7.94GB

-->

帖子完整标题:天堂之门 Heavens.Door.2009.1080p.BluRay.x264-SSF 7.94GB




◎译  名 天堂之门 / Heaven's Door / 天国之门
◎片  名 ヘブンズ?ドア
◎年  代 2009
◎产  地 日本
◎类  别 剧情
◎语  言 日语
◎上映日期 2009-02-07
◎IMDb评分 6.7/10 from 216 users
◎IMDb链接 http://www.imdb.com/title/tt1173947
◎豆瓣评分 7.3/10 from 2849 users
◎豆瓣链接 https://movie.douban.com/subject/2970120/
◎片  长 106 分钟
◎导  演 迈克尔·艾里亚斯 Michael Arias
◎编  剧 托马斯·雅恩 Thomas Jahn / 大森美香 Mika Ohmori
◎主  演 长濑智也 Tomoya Nagase
      福田麻由子 Mayuko Fukuda
      长塚圭史 Keishi Nagatsuka
      大仓孝二 Koji Ookura
      和田聪宏 Toshihiro Wada
      黄川田将也 Masaya Kikawada
      田中泯 Min Tanaka
      三浦友和 Tomokazu Miura
      柄本佑 Tasuku Emoto
      不破万作 Mansaku Fuwa
      二宫和也 Kazunari Ninomiya
      今宿麻美 Asami Imajuku
      雾岛丽香 Reika Kirishima
      北见敏之 Toshiyuki Kitami
      诹访太朗 Tar? Suwa


◎标  签 日本电影 | 长濑智也 | 福田麻由子 | 日本 | 二宫和也 | 日影 | 三浦友和 | 电影

◎简  介

  28岁的小青年青山胜人(长濑智也 饰)从未想到自己的人生会如此短暂,在此之前他终日浑浑噩噩,胸无志向,然而一直诊断书却令他遭受了前所未有的打击。他的脑部长了肿瘤,命不久矣。入院期间,胜人结识了只有14的女孩白石春海(福田麻由子 饰)。春海自幼患有绝症,从7岁至今所有的日子都在医院中度过,而她的生命也慢慢走向终点。胜人和春海同病相怜,成了一对忘年交。某晚,他们偷偷进入医院厨房喝酒,胜人兴之所致,决定带从未看过大海的春海前往海边。
两人走出医院,驾着K3企业社长小久保(长冢圭史 饰)的豪华跑车绝尘而去,阴差阳错他们又成了持枪抢劫的匪徒。警方和K3的人在身后紧追不舍,胜人和春海则朝着梦幻般的大海持续前进……

Video
ID : 1
Format : AVC
Format/Info : Advanced Video Codec
Format profile : [email protected]
Format settings : CABAC / 5 Ref Frames
Format settings, CABAC : Yes
Format settings, ReFrames : 5 frames
Codec ID : V_MPEG4/ISO/AVC
Duration : 1 h 46 min
Bit rate : 10.1 Mb/s
Width : 1 920 pixels
Height : 768 pixels
Display aspect ratio : 2.500
Frame rate mode : Constant
Frame rate : 23.976 (24000/1001) FPS
Color space : YUV
Chroma subsampling : 4:2:0
Bit depth : 8 bits
Scan type : Progressive
Bits/(Pixel*Frame) : 0.285
Stream size : 7.31 GiB (92%)
Writing library : x264 core 110 r1804 e89c4cf
Encoding settings : cabac=1 / ref=5 / deblock=1:-1:-1 / analyse=0x3:0x133 / me=umh / subme=7 / psy=1 / psy_rd=1.00:0.15 / mixed_ref=1 / me_range=16 / chroma_me=1 / trellis=1 / 8x8dct=1 / cqm=0 / deadzone=21,11 / fast_pskip=0 / chroma_qp_offset=-3 / threads=18 / sliced_threads=0 / nr=0 / decimate=1 / interlaced=0 / constrained_intra=0 / bframes=3 / b_pyramid=2 / b_adapt=1 / b_bias=0 / direct=1 / weightb=1 / open_gop=0 / weightp=2 / keyint=250 / keyint_min=23 / scenecut=40 / intra_refresh=0 / rc_lookahead=40 / rc=2pass / mbtree=1 / bitrate=10076 / ratetol=1.0 / qcomp=0.60 / qpmin=0 / qpmax=51 / qpstep=4 / cplxblur=20.0 / qblur=0.5 / ip_ratio=1.40 / aq=1:1.00
Language : English
Default : Yes
Forced : No

Audio
ID : 2
Format : AC-3
Format/Info : Audio Coding 3
Commercial name : Dolby Digital
Muxing mode : Header stripping
Codec ID : A_AC3
Duration : 1 h 46 min
Bit rate mode : Constant
Bit rate : 640 kb/s
Channel(s) : 6 channels
Channel layout : L R C LFE Ls Rs
Sampling rate : 48.0 kHz
Frame rate : 31.250 FPS (1536 SPF)
Bit depth : 16 bits
Compression mode : Lossy
Stream size : 486 MiB (6%)
Language : Japanese
Service kind : Complete Main
Default : Yes
Forced : No

Text
ID : 3
Format : UTF-8
Codec ID : S_TEXT/UTF8
Codec ID/Info : UTF-8 Plain Text
Language : English
Default : Yes
Forced : No





1 个附件 售价 大小 下载 时间

Heavens.Door.2009.1080p.BluRay.x264-SSF.torrent 0 金币 40.20K 504 次 4天前

#1楼
发帖时间:2019-06-13 01:39:15   |   回复数:2
liyouchai
超凡入圣№
谢谢楼主分享资源
4天前 #2楼
911degrees
隐世仙人♂
非常感谢,谢谢分享
4天前 #3楼
游客组