conanlcg
超级版主

[2009] [其他] [恐怖] [BD-1080P] 彼岸岛 Higanjima.Escape.From.Vampire.Island.2009.1080p.BluRay.x264-SSF 7.94GB

-->

帖子完整标题:彼岸岛 Higanjima.Escape.From.Vampire.Island.2009.1080p.BluRay.x264-SSF 7.94GB




◎译  名 彼岸岛 / ???
◎片  名 彼岸島
◎年  代 2009
◎产  地 韩国 / 日本
◎类  别 恐怖
◎语  言 日语
◎上映日期 2010-01-09
◎IMDb评分 5.4/10 from 642 users
◎IMDb链接 http://www.imdb.com/title/tt1270767
◎豆瓣评分 5.0/10 from 661 users
◎豆瓣链接 https://movie.douban.com/subject/3213305/
◎片  长 122 分钟
◎导  演 金泰均 Tae-gyun Kim
◎编  剧 大石哲也
◎主  演 石黒英雄
      渡边大
      水川麻美
      山本耕史


◎标  签 日本 | 日本电影 | 恐怖 | 漫画改编 | 惊悚 | 彼岸岛 | 水川あさみ | 山本耕史

◎简  介

  长久以来,宫本明(石黑英雄 饰)都生活在哥哥笃(渡边大 饰)的阴影之中,笃不仅长相英俊而且品学兼优,和深得家人喜爱的笃相比,整日无所事事不学无术的明简直就像是跳梁小丑。然而,就在某一天,完美的笃突然失踪从此了无音信,这场意外并没有将明从压力中解放出来,反而令他坠入了更深的黑暗之中。
一次偶然中,一位名叫青山冷(水川麻美 饰)的神秘美女找到了明,她不仅持有笃的驾照,更告诉明,她知道笃的下落。就这样,在青山冷的指引下,明和自己的一帮朋友们踏上了彼岸岛的土地之上,让他们没有想到的是,等待着他们的,竟然是可怕的吸血鬼,以及无穷无尽的死亡与痛苦。

Video
ID : 1
Format : AVC
Format/Info : Advanced Video Codec
Format profile : [email protected]
Format settings : CABAC / 5 Ref Frames
Format settings, CABAC : Yes
Format settings, ReFrames : 5 frames
Codec ID : V_MPEG4/ISO/AVC
Duration : 2 h 2 min
Bit rate : 8 630 kb/s
Width : 1 920 pixels
Height : 816 pixels
Display aspect ratio : 2.35:1
Frame rate mode : Constant
Frame rate : 23.976 (24000/1001) FPS
Color space : YUV
Chroma subsampling : 4:2:0
Bit depth : 8 bits
Scan type : Progressive
Bits/(Pixel*Frame) : 0.230
Stream size : 7.23 GiB (91%)
Writing library : x264 core 110 r1804 e89c4cf
Encoding settings : cabac=1 / ref=5 / deblock=1:-1:-1 / analyse=0x3:0x133 / me=umh / subme=7 / psy=1 / psy_rd=1.00:0.15 / mixed_ref=1 / me_range=16 / chroma_me=1 / trellis=1 / 8x8dct=1 / cqm=0 / deadzone=21,11 / fast_pskip=0 / chroma_qp_offset=-3 / threads=18 / sliced_threads=0 / nr=0 / decimate=1 / interlaced=0 / constrained_intra=0 / bframes=3 / b_pyramid=2 / b_adapt=1 / b_bias=0 / direct=1 / weightb=1 / open_gop=0 / weightp=2 / keyint=250 / keyint_min=23 / scenecut=40 / intra_refresh=0 / rc_lookahead=40 / rc=2pass / mbtree=1 / bitrate=8630 / ratetol=1.0 / qcomp=0.60 / qpmin=0 / qpmax=51 / qpstep=4 / cplxblur=20.0 / qblur=0.5 / ip_ratio=1.40 / aq=1:1.00
Language : English
Default : Yes
Forced : No

Audio
ID : 2
Format : AC-3
Format/Info : Audio Coding 3
Commercial name : Dolby Digital
Muxing mode : Header stripping
Codec ID : A_AC3
Duration : 2 h 2 min
Bit rate mode : Constant
Bit rate : 640 kb/s
Channel(s) : 2 channels
Channel layout : L R
Sampling rate : 48.0 kHz
Frame rate : 31.250 FPS (1536 SPF)
Bit depth : 16 bits
Compression mode : Lossy
Stream size : 562 MiB (7%)
Language : Japanese
Service kind : Complete Main
Default : Yes
Forced : No

Text
ID : 3
Format : UTF-8
Codec ID : S_TEXT/UTF8
Codec ID/Info : UTF-8 Plain Text
Language : English
Default : Yes
Forced : No





1 个附件 售价 大小 下载 时间

Higanjima.Escape.From.Vampire.Island.2009.1080p.BluRay.x264-SSF.torrent 0 金币 40.20K 280 次 4天前

#1楼
发帖时间:2019-06-13 01:35:17   |   回复数:2
liyouchai
超凡入圣№
谢谢楼主分享资源
4天前 #2楼
911degrees
隐世仙人♂
非常感谢,谢谢分享
4天前 #3楼
游客组