conanlcg
超级版主

[更 早] [香港] [喜剧] [BD-1080P] 孤男寡女 Needing.You.2000.1080p.BluRay.x264-aBD 6.55GB

-->

帖子完整标题:孤男寡女 Needing.You.2000.1080p.BluRay.x264-aBD 6.55GB




◎译  名 Needing You ...
◎片  名 孤男寡女
◎年  代 2000
◎产  地 香港
◎类  别 喜剧 / 爱情
◎语  言 汉语普通话 / 粤语
◎上映日期 2000-06-23(香港)
◎IMDb评分 6.8/10 from 1199 users
◎IMDb链接 http://www.imdb.com/title/tt0244092
◎豆瓣评分 6.8/10 from 38655 users
◎豆瓣链接 https://movie.douban.com/subject/1307906/
◎片  长 101 分钟
◎导  演 杜琪峰 / 韦家辉
◎编  剧 韦家辉 / 游乃海
◎主  演 刘德华
      郑秀文
      梁艺龄
      黄浩然
      许绍雄
      海俊杰
      郭少芸
      林雪


◎标  签 香港 | 杜琪峰 | 刘德华 | 郑秀文 | 爱情 | 香港电影 | 喜剧 | 2000

◎简  介

  华少(刘德华 饰)是一个潇洒风流的电脑公司高层,公司里的一个小职员令他十分头痛。小职员命叫Kinki(郑秀文 饰),每当她的神经质发作便会到处清洁,她一心想得到美满的爱情,实际却令她失望。后来Kinki做了华少的助理,乐于帮助他人的她引来了很多事端,华少不得不每次都帮她解围。导致公司的人都以为他们有染。华少的前女友看不过眼,便决定介绍少年富豪Roger(黄浩然 饰)给Kinki认识,Roger对Kinki一见钟情,可是此时华少对Kinki表现出了过分的关心,让女友觉得他喜欢了Kinki。Roger逼着Kinki跟她结婚,Kinki打电话给华少求助,船在华少赶到前已经开出。
一天华少在公司的大堂里,看到了一个熟悉的身影……

◎获奖情况

  第37届台北金马影展(2000)
  金马奖 最佳女主角(提名) 郑秀文

  第20届香港电影金像奖(2001)
  最佳电影(提名)
  最佳导演(提名) 杜琪峰 / 韦家辉
  最佳编剧(提名) 韦家辉 / 游乃海
  最佳女主角(提名) 郑秀文
  最佳原创电影歌曲(提名) 郑秀文



Video
ID : 1
Format : AVC
Format/Info : Advanced Video Codec
Format profile : [email protected]
Format settings : CABAC / 4 Ref Frames
Format settings, CABAC : Yes
Format settings, ReFrames : 4 frames
Muxing mode : Header stripping
Codec ID : V_MPEG4/ISO/AVC
Duration : 1 h 44 min
Bit rate : 8 359 kb/s
Width : 1 920 pixels
Height : 1 080 pixels
Display aspect ratio : 16:9
Frame rate mode : Constant
Frame rate : 24.000 FPS
Color space : YUV
Chroma subsampling : 4:2:0
Bit depth : 8 bits
Scan type : Progressive
Bits/(Pixel*Frame) : 0.168
Stream size : 5.95 GiB (91%)
Writing library : x264 core 114 r1913 5fd3dce
Encoding settings : cabac=1 / ref=4 / deblock=1:-1:-1 / analyse=0x3:0x113 / me=umh / subme=7 / psy=1 / psy_rd=1.00:0.00 / mixed_ref=1 / me_range=16 / chroma_me=1 / trellis=1 / 8x8dct=1 / cqm=0 / deadzone=21,11 / fast_pskip=1 / chroma_qp_offset=-2 / threads=12 / sliced_threads=0 / nr=0 / decimate=1 / interlaced=0 / constrained_intra=0 / bframes=3 / b_pyramid=2 / b_adapt=2 / b_bias=0 / direct=3 / weightb=1 / open_gop=0 / weightp=2 / keyint=250 / keyint_min=24 / scenecut=40 / intra_refresh=0 / rc_lookahead=40 / rc=2pass / mbtree=1 / bitrate=8359 / ratetol=1.0 / qcomp=0.60 / qpmin=0 / qpmax=69 / qpstep=4 / cplxblur=20.0 / qblur=0.5 / vbv_maxrate=50000 / vbv_bufsize=50000 / nal_hrd=none / ip_ratio=1.40 / aq=1:1.00
Language : Chinese
Default : Yes
Forced : Yes

Audio
ID : 2
Format : AC-3
Format/Info : Audio Coding 3
Commercial name : Dolby Digital
Muxing mode : Header stripping
Codec ID : A_AC3
Duration : 1 h 44 min
Bit rate mode : Constant
Bit rate : 640 kb/s
Channel(s) : 6 channels
Channel layout : L R C LFE Ls Rs
Sampling rate : 48.0 kHz
Frame rate : 31.250 FPS (1536 SPF)
Bit depth : 16 bits
Compression mode : Lossy
Stream size : 477 MiB (7%)
Language : Chinese
Service kind : Complete Main
Default : Yes
Forced : Yes

Text
ID : 3
Format : UTF-8
Codec ID : S_TEXT/UTF8
Codec ID/Info : UTF-8 Plain Text
Language : English
Default : Yes
Forced : No





1 个附件 售价 大小 下载 时间

Needing.You.2000.1080p.BluRay.x264-aBD.torrent 0 金币 33.23K 1939 次 7天前

#1楼
发帖时间:2019-06-13 01:23:42   |   回复数:4
liyouchai
超凡入圣№
谢谢楼主分享资源
7天前 #2楼
jokingcheung
一代宗师
谢谢分享
7天前 #3楼
911degrees
隐世仙人♂
非常感谢,谢谢分享
7天前 #4楼
wybt
武林高手
感谢分享。需要就是孤寡?
7天前 #5楼
游客组