conanlcg
超级版主

[2008] [其他] [惊悚] [BD-1080P] 荡寇 Plastic.City.2008.1080p.BluRay.x264-SSF 7.94GB

-->

帖子完整标题:荡寇 Plastic.City.2008.1080p.BluRay.x264-SSF 7.94GB




◎译  名 Plastic City / 塑料城市
◎片  名 荡寇
◎年  代 2008
◎产  地 巴西 / 中国大陆 / 香港 / 日本
◎类  别 惊悚
◎语  言 葡萄牙语 / 汉语普通话 / 日语
◎上映日期 2008-09-08
◎IMDb评分 4.6/10 from 342 users
◎IMDb链接 http://www.imdb.com/title/tt1054119
◎豆瓣评分 5.1/10 from 3698 users
◎豆瓣链接 https://movie.douban.com/subject/2135982/
◎片  长 118分钟
◎导  演 余力为 Nelson Yu Lik-wai
◎编  剧 刘奋斗 Fendou Liu / 余力为 Nelson Yu Lik-wai / Fernando Bonassi
◎主  演 小田切让 J? Odagiri
      黄秋生 Anthony Wong Chau-Sang
      黄奕 Yi Huang
      Tainá Müller
      米尔黑·考塔兹 Milhem Cortaz
      陈昭荣 Jeff Chen


◎标  签 香港 | 日本 | 黑帮 | 犯罪 | 2008 | 剧情 | 巴西 | 文艺

◎简  介

  《荡寇》以巴西圣保罗市区一处传统的东洋街区为背景,讲述了年轻冲动的纨绔子弟麒麟和他的父亲,一个带有传奇色彩的中国籍逃犯野良之间的恩恩怨怨。
这对父子是南美最大的假货走私集团的首领。他们统治着东洋街区这个充斥着帮会势力、街头商贩、腐败政客和舞女的地方。然而,苦心经营多年的帝国仍会因一着不慎而难逃毁灭的命运。
一个由政客和黑帮串通的阴谋正在逼近野良。他逐渐地失去了对生意的控制,陷入了颓废之中,最终锒铛入狱。剩下麒麟在这个街区战场中孤军奋战。但野良有感于年华已逝,厌倦了血雨腥风,便离开了儿子,制造了自己死亡的假象。搭乘军方安排的直升机被投进丛林,那是他生命的起点,如今是他作茧自缚、忏悔的迷宫。
摆脱了暴力的困惑迷惘,麒麟开始寻找他的父亲。在神秘的森林中,父子俩将过往的恩仇一笔勾销。那刺出的一刀杀死了一个世界,万物在麒麟面前枯萎然后重生, 密林和大海一片寂静,生命还是自己在承担。

◎获奖情况

  第65届威尼斯电影节(2008)
  金狮奖(提名) 余力为



Video
ID : 1
Format : AVC
Format/Info : Advanced Video Codec
Format profile : [email protected]
Format settings : CABAC / 4 Ref Frames
Format settings, CABAC : Yes
Format settings, ReFrames : 4 frames
Codec ID : V_MPEG4/ISO/AVC
Duration : 1 h 35 min
Bit rate : 10.4 Mb/s
Width : 1 920 pixels
Height : 1 080 pixels
Display aspect ratio : 16:9
Frame rate mode : Constant
Frame rate : 24.000 FPS
Color space : YUV
Chroma subsampling : 4:2:0
Bit depth : 8 bits
Scan type : Progressive
Bits/(Pixel*Frame) : 0.210
Stream size : 6.78 GiB (85%)
Writing library : x264 core 96 r1613 81e75e9
Encoding settings : cabac=1 / ref=4 / deblock=1:0:0 / analyse=0x3:0x133 / me=umh / subme=7 / psy=1 / psy_rd=1.00:0.15 / mixed_ref=1 / me_range=16 / chroma_me=1 / trellis=1 / 8x8dct=1 / cqm=0 / deadzone=21,11 / fast_pskip=0 / chroma_qp_offset=-3 / threads=12 / sliced_threads=0 / nr=0 / decimate=0 / interlaced=0 / constrained_intra=0 / bframes=3 / b_pyramid=2 / b_adapt=1 / b_bias=0 / direct=1 / weightb=1 / weightp=2 / keyint=250 / keyint_min=25 / scenecut=40 / intra_refresh=0 / rc_lookahead=40 / rc=2pass / mbtree=1 / bitrate=10435 / ratetol=1.0 / qcomp=0.60 / qpmin=10 / qpmax=51 / qpstep=4 / cplxblur=20.0 / qblur=0.5 / ip_ratio=1.40 / aq=2:1.00
Language : English
Default : No
Forced : No

Audio
ID : 2
Format : DTS
Format/Info : Digital Theater Systems
Codec ID : A_DTS
Duration : 1 h 35 min
Bit rate mode : Constant
Bit rate : 1 509 kb/s
Channel(s) : 6 channels
Channel layout : C L R Ls Rs LFE
Sampling rate : 48.0 kHz
Frame rate : 93.750 FPS (512 SPF)
Bit depth : 16 bits
Compression mode : Lossy
Stream size : 1.00 GiB (13%)
Language : Chinese
Default : Yes
Forced : No

Text
ID : 3
Format : UTF-8
Codec ID : S_TEXT/UTF8
Codec ID/Info : UTF-8 Plain Text
Language : English
Default : Yes
Forced : No





1 个附件 售价 大小 下载 时间

Plastic.City.2008.1080p.BluRay.x264-SSF.torrent 0 金币 40.16K 588 次 3月前

#1楼
发帖时间:2019-06-13 01:21:17   |   回复数:3
liyouchai
隐世仙人♂
谢谢楼主分享资源
3月前 #2楼
911degrees
隐世仙人♂
非常感谢,谢谢分享
3月前 #3楼
kola13
一派掌门
感谢分享
3月前 #4楼
游客组