conanlcg
超级版主

[2009] [香港] [剧情] [BD-1080P] 新宿事件 Shinjuku.Incident.2009.CHINESE.1080p.BluRay.x264.DTS-PbK 12.38GB

-->

帖子完整标题:新宿事件 Shinjuku.Incident.2009.CHINESE.1080p.BluRay.x264.DTS-PbK 12.38GB




◎译  名 Shinjuku Incident
◎片  名 新宿事件
◎年  代 2009
◎产  地 香港
◎类  别 剧情 / 惊悚 / 犯罪
◎语  言 汉语普通话 / 日语 / 粤语 / 英语 / 闽南语
◎上映日期 2009-04-02(香港)
◎IMDb评分 7.0/10 from 10679 users
◎IMDb链接 http://www.imdb.com/title/tt1075419
◎豆瓣评分 7.4/10 from 93697 users
◎豆瓣链接 https://movie.douban.com/subject/2209368/
◎片  长 119 分钟
◎导  演 尔冬升 Tung-Shing Yee
◎编  剧 尔冬升 Tung-Shing Yee / 秦天南 Tin Nam Chun / 刘永平
◎主  演 成龙 Jackie Chan
      竹中直人 Naoto Takenaka
      吴彦祖 Daniel Wu
      徐静蕾 Jinglei Xu
      范冰冰 Bingbing Fan
      加藤雅也 Masaya Kat?
      高捷 Jack Kao
      秦沛 Paul Chun
      林雪 Suet Lam
      仓田保昭 Yasuaki Kurata
      钱嘉乐 Kar Lok Chin
      峰岸彻 T?ru Minegishi
      姜丽文 Lesley Chiang


◎标  签 成龙 | 香港 | 吴彦祖 | 尔冬升 | 黑帮 | 新宿事件 | 动作 | 徐静蕾

◎简  介

  20世纪90年代中国东北,铁头(成龙 饰)和女孩秀秀(徐静蕾 饰)两情相悦。不久,秀秀作为二战遗孤返回日本,从此杳无音讯。挂念秀秀的铁头偷渡来至日本,投靠同乡阿杰(吴彦祖 饰),与一众华人偷渡客过着提心吊胆的黑工日子。
此时的秀秀已经更名结子,嫁给了日本黑帮三和会的若头江口利成(加藤雅也 饰)。亲眼见到这一幕的铁头心灰意冷,自此决心千方百计赚钱,留在日本。他们捞钱的手段很快触及到台南帮的利益,最终导致阿杰被斩断右手。铁头跟踪台南帮老大高捷(高捷 饰),意外得知一场黑社会的利益仇杀阴谋,他和一众朋友不可避免地卷入其中……

◎获奖情况

  第29届香港电影金像奖(2010)
  最佳电影(提名) 陈自强 / 苏志鸿
  最佳导演(提名) 尔冬升
  最佳摄影(提名) 北信康
  最佳动作设计(提名) 钱嘉乐



Video
ID : 1
Format : AVC
Format/Info : Advanced Video Codec
Format profile : [email protected]
Format settings : CABAC / 5 Ref Frames
Format settings, CABAC : Yes
Format settings, ReFrames : 5 frames
Codec ID : V_MPEG4/ISO/AVC
Duration : 1 h 59 min
Bit rate : 13.4 Mb/s
Width : 1 920 pixels
Height : 814 pixels
Display aspect ratio : 2.35:1
Frame rate mode : Constant
Frame rate : 24.000 FPS
Color space : YUV
Chroma subsampling : 4:2:0
Bit depth : 8 bits
Scan type : Progressive
Bits/(Pixel*Frame) : 0.356
Stream size : 11.1 GiB (90%)
Writing library : x264 core 148 r2692+46 0f71ed5 7mod [[email protected] X86_64]
Encoding settings : cabac=1 / ref=5 / deblock=1:-3:-3 / analyse=0x3:0x113 / me=umh / subme=11 / psy=1 / fade_compensate=0.00 / psy_rd=1.00:0.00 / mixed_ref=1 / me_range=48 / chroma_me=1 / trellis=2 / 8x8dct=1 / cqm=0 / deadzone=11,6 / fast_pskip=0 / chroma_qp_offset=-2 / threads=12 / lookahead_threads=2 / sliced_threads=0 / nr=0 / decimate=0 / interlaced=0 / bluray_compat=0 / constrained_intra=0 / fgo=0 / bframes=8 / b_pyramid=2 / b_adapt=2 / b_bias=0 / direct=3 / weightb=1 / open_gop=0 / weightp=2 / keyint=250 / keyint_min=24 / scenecut=40 / intra_refresh=0 / rc_lookahead=60 / rc=crf / mbtree=0 / crf=19.0000 / qcomp=0.60 / qpmin=0:0:0 / qpmax=32:32:32 / qpstep=4 / vbv_maxrate=40000 / vbv_bufsize=30000 / crf_max=0.0 / nal_hrd=none / filler=0 / ip_ratio=1.30 / pb_ratio=1.20 / aq=4:0.80 / aq-sensitivity=10.00 / aq-factor=1.00:1.00:1.00 / aq2=0 / aq3=0
Language : English
Default : Yes
Forced : No
Color range : Limited
Color primaries : BT.709
Transfer characteristics : BT.709
Matrix coefficients : BT.709

Audio
ID : 2
Format : DTS
Format/Info : Digital Theater Systems
Codec ID : A_DTS
Duration : 1 h 59 min
Bit rate mode : Constant
Bit rate : 1 509 kb/s
Channel(s) : 6 channels
Channel layout : C L R Ls Rs LFE
Sampling rate : 48.0 kHz
Frame rate : 93.750 FPS (512 SPF)
Bit depth : 16 bits
Compression mode : Lossy
Stream size : 1.26 GiB (10%)
Default : Yes
Forced : No

Text
ID : 3
Format : UTF-8
Codec ID : S_TEXT/UTF8
Codec ID/Info : UTF-8 Plain Text
Duration : 1 h 54 min
Bit rate : 45 b/s
Count of elements : 1598
Stream size : 37.8 KiB (0%)
Language : English
Default : Yes
Forced : No

Menu
00:00:00.000 : en:00:00:00.000
00:06:20.208 : en:00:06:20.208
00:11:55.958 : en:00:11:55.958
00:17:51.333 : en:00:17:51.333
00:22:28.125 : en:00:22:28.125
00:29:29.583 : en:00:29:29.583
00:34:21.583 : en:00:34:21.583
00:41:57.542 : en:00:41:57.542
00:47:46.458 : en:00:47:46.458
00:54:22.542 : en:00:54:22.542
01:00:44.875 : en:01:00:44.875
01:06:20.917 : en:01:06:20.917
01:13:12.458 : en:01:13:12.458
01:17:12.250 : en:01:17:12.250
01:23:25.167 : en:01:23:25.167
01:30:28.333 : en:01:30:28.333
01:36:00.583 : en:01:36:00.583
01:41:07.167 : en:01:41:07.167
01:48:48.958 : en:01:48:48.958
01:51:44.417 : en:01:51:44.417





1 个附件 售价 大小 下载 时间

Shinjuku.Incident.2009.CHINESE.1080p.BluRay.x264.DTS-PbK.torrent 0 金币 62.45K 2814 次 2月前

#1楼
发帖时间:2019-06-13 01:19:24   |   回复数:4
liyouchai
隐世仙人♂
谢谢楼主分享资源
2月前 #2楼
jokingcheung
一代宗师
谢谢分享
2月前 #3楼
911degrees
隐世仙人♂
非常感谢,谢谢分享
2月前 #4楼
tanchoohoon
武林盟主
感谢楼主的无私分享
2月前 #5楼
游客组