conanlcg
超级版主

[2008] [韩国] [剧情] [BD-1080P] 非常主播 Speed.Scandal.2008.1080p.BluRay.x264-SSF 7.94GB

-->

帖子完整标题:非常主播 Speed.Scandal.2008.1080p.BluRay.x264-SSF 7.94GB




◎译  名 非常主播 / Scandal Makers / Speeding Scandal / 急速丑闻(台) / 极速绯闻(港) / 超速绯闻 / 过速绯闻
◎片  名 ?????
◎年  代 2008
◎产  地 韩国
◎类  别 剧情 / 喜剧 / 音乐
◎语  言 韩语
◎上映日期 2008-12-03(韩国) / 2009-10-09(中国大陆)
◎IMDb评分 7.2/10 from 3391 users
◎IMDb链接 http://www.imdb.com/title/tt1360795
◎豆瓣评分 7.9/10 from 140168 users
◎豆瓣链接 https://movie.douban.com/subject/3550132/
◎片  长 108 分钟
◎导  演 姜炯哲 Hyeong-Cheol Kang
◎编  剧 姜炯哲 Hyeong-Cheol Kang
◎主  演 车太贤 Tae-hyun Cha
      朴宝英 Bo-young Park
      王锡玄 Seok-hyeon Hwang
      宋河波
      黄雨瑟惠 Woo-seul-hye Hwang


◎标  签 喜剧 | 韩国电影 | 车太贤 | 韩国 | 朴宝英 | 超速绯闻 | 2008 | 爱情

◎简  介

  生活优渥的单身贵族南贤洙(车太贤 饰)曾是一名失败的歌手,年过而立后,他迎来了事业的第二春。贤洙所主持的谈话类节目备受欢迎,尤其是近段时间单身妈妈静南寻找生身父亲的故事更掀起收听率飙升的高潮。
某晚,贤洙正等待和女友共度浪漫一夜的时候,一对不速之客破坏了这一切。来者正是静南(朴宝英 饰)和她6岁的儿子纪东,而她所寻找的父亲竟然是贤洙!原来,贤洙初三时曾和邻居大他5岁的女孩相恋,这唯一一次恋爱、唯一一次肉体之欢导致了女儿的诞生。当年的恋人在分手后隐瞒了怀孕的事实,贤洙则背井离乡去追寻自己的梦想。
女儿和外孙的到来,令这个过惯单身生活且孩子气的大男人倍感困扰,更主要的是,在这个混乱复杂的娱乐圈里,这样的绯闻会令贤洙好不容易经营起来的事业毁于一旦。他该如何面对这突如其来的一切呢?

◎获奖情况

  第12届上海国际电影节(2009)
  亚洲新人奖 最佳影片



Video
ID : 1
Format : AVC
Format/Info : Advanced Video Codec
Format profile : [email protected]
Format settings : CABAC / 5 Ref Frames
Format settings, CABAC : Yes
Format settings, ReFrames : 5 frames
Codec ID : V_MPEG4/ISO/AVC
Duration : 1 h 48 min
Bit rate : 8 942 kb/s
Width : 1 920 pixels
Height : 816 pixels
Display aspect ratio : 2.35:1
Frame rate mode : Constant
Frame rate : 23.976 (24000/1001) FPS
Color space : YUV
Chroma subsampling : 4:2:0
Bit depth : 8 bits
Scan type : Progressive
Bits/(Pixel*Frame) : 0.238
Stream size : 6.63 GiB (84%)
Writing library : x264 core 104 r1688 0b36c6d
Encoding settings : cabac=1 / ref=5 / deblock=1:0:0 / analyse=0x3:0x133 / me=umh / subme=7 / psy=1 / psy_rd=1.00:0.15 / mixed_ref=1 / me_range=16 / chroma_me=1 / trellis=1 / 8x8dct=1 / cqm=0 / deadzone=21,11 / fast_pskip=0 / chroma_qp_offset=-3 / threads=12 / sliced_threads=0 / nr=0 / decimate=0 / interlaced=0 / constrained_intra=0 / bframes=3 / b_pyramid=2 / b_adapt=1 / b_bias=0 / direct=1 / weightb=1 / open_gop=0 / weightp=2 / keyint=250 / keyint_min=23 / scenecut=40 / intra_refresh=0 / rc_lookahead=40 / rc=2pass / mbtree=1 / bitrate=8942 / ratetol=1.0 / qcomp=0.60 / qpmin=10 / qpmax=51 / qpstep=4 / cplxblur=20.0 / qblur=0.5 / ip_ratio=1.40 / aq=2:1.00
Language : English
Default : Yes
Forced : No

Audio
ID : 2
Format : DTS
Format/Info : Digital Theater Systems
Muxing mode : Header stripping
Codec ID : A_DTS
Duration : 1 h 48 min
Bit rate mode : Constant
Bit rate : 1 509 kb/s
Channel(s) : 6 channels
Channel layout : C L R Ls Rs LFE
Sampling rate : 48.0 kHz
Frame rate : 93.750 FPS (512 SPF)
Bit depth : 16 bits
Compression mode : Lossy
Stream size : 1.15 GiB (14%)
Language : Korean
Default : Yes
Forced : No

Text
ID : 3
Format : UTF-8
Codec ID : S_TEXT/UTF8
Codec ID/Info : UTF-8 Plain Text
Language : English
Default : Yes
Forced : No





1 个附件 售价 大小 下载 时间

Speed.Scandal.2008.1080p.BluRay.x264-SSF.torrent 0 金币 40.16K 1813 次 3月前

#1楼
发帖时间:2019-06-13 01:17:23   |   回复数:2
liyouchai
隐世仙人♂
谢谢楼主分享资源
3月前 #2楼
911degrees
隐世仙人♂
非常感谢,谢谢分享
3月前 #3楼
游客组