conanlcg
超级版主

[2009] [香港] [剧情] [BD-1080P] 机动部队—同袍 Tactical.Unit.Comrades.In.Arms.2009.1080p.BluRay.x264-aBD 6.55GB

-->

帖子完整标题:机动部队—同袍 Tactical.Unit.Comrades.In.Arms.2009.1080p.BluRay.x264-aBD 6.55GB




◎译  名 PTU 2 / Tactical Unit: Comrades in Arms / 机动部队之同袍
◎片  名 机动部队—同袍
◎年  代 2009
◎产  地 香港
◎类  别 剧情 / 动作 / 犯罪
◎语  言 粤语
◎上映日期 2009-01-08
◎IMDb评分 5.7/10 from 352 users
◎IMDb链接 http://www.imdb.com/title/tt1344008
◎豆瓣评分 6.4/10 from 8616 users
◎豆瓣链接 https://movie.douban.com/subject/3391271/
◎片  长 91 分钟
◎导  演 罗永昌
◎编  剧 游乃海 / 欧健儿
◎主  演 任达华
      邵美琪
      林雪
      彭敬慈
      黄智贤
      阮民安
      施祖男


◎标  签 香港 | 银河映像 | 杜琪峰 | 任达华 | 香港电影 | 警匪 | 罗永昌 | 2009

◎简  介

  森(任达华 饰)和May(邵美琪 饰)各自带领的机动小组成员间争强好胜,May的小组得到何长官赏识,娇纵傲慢,森一队心有不服,却无可奈何。
机动小组即将解散,但在执勤的最后一天发生一起抢劫案,劫匪逃入荒山。两支小组并为一队上山展开地毯式搜查。期间各种离奇状况不断,加上彼此矛盾重重,致使森和May分头行动,却遭遇诸多险阻。另一方面,为队员送饭的肥棠(林雪 饰)汽车抛锚,结果遭遇劫匪。官兵与强盗在山中展开了一场怪异惊险的捉迷藏游戏,而PTU同事间的友情也受到了考验……

Video
ID : 1
Format : AVC
Format/Info : Advanced Video Codec
Format profile : [email protected]
Format settings : CABAC / 4 Ref Frames
Format settings, CABAC : Yes
Format settings, ReFrames : 4 frames
Codec ID : V_MPEG4/ISO/AVC
Duration : 1 h 30 min
Bit rate : 8 886 kb/s
Width : 1 920 pixels
Height : 1 080 pixels
Display aspect ratio : 16:9
Frame rate mode : Constant
Frame rate : 24.000 FPS
Color space : YUV
Chroma subsampling : 4:2:0
Bit depth : 8 bits
Scan type : Progressive
Bits/(Pixel*Frame) : 0.179
Stream size : 5.47 GiB (83%)
Writing library : x264 core 122 r2184 5c85e0a
Encoding settings : cabac=1 / ref=4 / deblock=1:-1:-1 / analyse=0x3:0x113 / me=umh / subme=7 / psy=1 / psy_rd=1.00:0.00 / mixed_ref=1 / me_range=16 / chroma_me=1 / trellis=1 / 8x8dct=1 / cqm=0 / deadzone=21,11 / fast_pskip=1 / chroma_qp_offset=-2 / threads=6 / sliced_threads=0 / nr=0 / decimate=1 / interlaced=0 / bluray_compat=0 / constrained_intra=0 / bframes=3 / b_pyramid=2 / b_adapt=2 / b_bias=0 / direct=3 / weightb=1 / open_gop=0 / weightp=2 / keyint=250 / keyint_min=24 / scenecut=40 / intra_refresh=0 / rc_lookahead=40 / rc=2pass / mbtree=1 / bitrate=8886 / ratetol=1.0 / qcomp=0.60 / qpmin=0 / qpmax=69 / qpstep=4 / cplxblur=20.0 / qblur=0.5 / vbv_maxrate=50000 / vbv_bufsize=50000 / nal_hrd=none / ip_ratio=1.40 / aq=1:1.00
Language : Chinese
Default : Yes
Forced : No

Audio
ID : 2
Format : DTS
Format/Info : Digital Theater Systems
Codec ID : A_DTS
Duration : 1 h 30 min
Bit rate mode : Constant
Bit rate : 1 509 kb/s
Channel(s) : 6 channels
Channel layout : C L R Ls Rs LFE
Sampling rate : 48.0 kHz
Frame rate : 93.750 FPS (512 SPF)
Bit depth : 16 bits
Compression mode : Lossy
Stream size : 974 MiB (15%)
Language : Chinese
Default : Yes
Forced : No

Text
ID : 3
Format : UTF-8
Codec ID : S_TEXT/UTF8
Codec ID/Info : UTF-8 Plain Text
Language : English
Default : Yes
Forced : No





1 个附件 售价 大小 下载 时间

Tactical.Unit.Comrades.In.Arms.2009.1080p.BluRay.x264-aBD.torrent 0 金币 33.25K 1806 次 2月前

#1楼
发帖时间:2019-06-13 01:15:18   |   回复数:4
liyouchai
隐世仙人♂
谢谢楼主分享资源
2月前 #2楼
jokingcheung
一代宗师
谢谢分享
2月前 #3楼
chou_k
武林高手
谢谢分享
2月前 #4楼
911degrees
隐世仙人♂
非常感谢,谢谢分享
2月前 #5楼
游客组