conanlcg
超级版主

[更 早] [香港] [喜剧] [BD-1080P] 鍾無艷 Wu.Yen.2001.1080p.BluRay.x264-aBD 7.93GB

-->

帖子完整标题:鍾無艷 Wu.Yen.2001.1080p.BluRay.x264-aBD 7.93GB




◎译  名 钟无艳 / Chung mo yim / Wu Yen
◎片  名 鍾無艷
◎年  代 2001
◎产  地 香港
◎类  别 喜剧 / 奇幻 / 古装
◎语  言 粤语
◎上映日期 2001-01-18(香港)
◎IMDb评分 6.2/10 from 517 users
◎IMDb链接 http://www.imdb.com/title/tt0272362
◎豆瓣评分 6.8/10 from 62501 users
◎豆瓣链接 https://movie.douban.com/subject/1308111/
◎片  长 123分钟
◎导  演 杜琪峰 / 韦家辉
◎编  剧 黄劲辉 / 韦家辉 / 游乃海
◎主  演 郑秀文
      梅艳芳
      张柏芝
      黄浩然
      林雪
      王天林
      许绍雄


◎标  签 香港 | 香港电影 | 喜剧 | 梅艳芳 | 郑秀文 | 张柏芝 | 杜琪峰 | 爱情

◎简  介

  春秋战国时期,一向昏庸好色的齐宣王(梅艳芳饰)误闯夜叉山,碰上了美丽的寨主钟无艳(郑秀文饰),齐宣王决定把钟无艳娶为皇后,可是一直倾心于钟无艳的“狐狸精”(张柏芝饰)出手阻挠,只要钟无艳爱上其他的人,脸上便会无缘无故多出一块难看的红斑。狐狸精后来化身夏迎春勾引齐宣王,齐宣王终日沉醉温柔乡。而钟无艳为了夫君出生入死、南征北战。齐宣王只会有事求助于钟无艳时才好言相向。齐宣王十分好赌,竟然把钟无艳作为作为筹码输掉了,钟无艳愤怒离开,脸上红斑也自然消失。夏迎春得逞后也离开了皇宫,齐宣王才发现自己最爱为何人,浪子回头。在受到叛徒攻击时,还是爱着齐宣王的钟无艳,赶到了皇宫,帮忙驱走外敌……

◎获奖情况

  第21届香港电影金像奖(2002)
  最佳女主角(提名) 郑秀文
  最佳美术指导 余家安
  最佳服装造型设计(提名) 余家安

  第2届华语电影传媒大奖(2002)
  最佳女主角(提名) 郑秀文



Video
ID : 1
Format : AVC
Format/Info : Advanced Video Codec
Format profile : [email protected]
Format settings : CABAC / 5 Ref Frames
Format settings, CABAC : Yes
Format settings, ReFrames : 5 frames
Muxing mode : Header stripping
Codec ID : V_MPEG4/ISO/AVC
Duration : 2 h 3 min
Bit rate : 8 566 kb/s
Width : 1 920 pixels
Height : 1 080 pixels
Display aspect ratio : 16:9
Frame rate mode : Constant
Frame rate : 24.000 FPS
Color space : YUV
Chroma subsampling : 4:2:0
Bit depth : 8 bits
Scan type : Progressive
Bits/(Pixel*Frame) : 0.172
Stream size : 7.22 GiB (91%)
Writing library : x264 core 114 r1913 5fd3dce
Encoding settings : cabac=1 / ref=5 / deblock=1:-1:-1 / analyse=0x3:0x113 / me=umh / subme=7 / psy=1 / psy_rd=1.00:0.00 / mixed_ref=1 / me_range=16 / chroma_me=1 / trellis=1 / 8x8dct=1 / cqm=0 / deadzone=21,11 / fast_pskip=1 / chroma_qp_offset=-2 / threads=12 / sliced_threads=0 / nr=0 / decimate=1 / interlaced=0 / constrained_intra=0 / bframes=3 / b_pyramid=2 / b_adapt=2 / b_bias=0 / direct=3 / weightb=1 / open_gop=0 / weightp=2 / keyint=250 / keyint_min=24 / scenecut=40 / intra_refresh=0 / rc_lookahead=40 / rc=2pass / mbtree=1 / bitrate=8566 / ratetol=1.0 / qcomp=0.60 / qpmin=0 / qpmax=69 / qpstep=4 / cplxblur=20.0 / qblur=0.5 / vbv_maxrate=50000 / vbv_bufsize=50000 / nal_hrd=none / ip_ratio=1.40 / aq=1:1.00
Language : Chinese
Default : Yes
Forced : Yes

Audio
ID : 2
Format : AC-3
Format/Info : Audio Coding 3
Commercial name : Dolby Digital
Muxing mode : Header stripping
Codec ID : A_AC3
Duration : 2 h 3 min
Bit rate mode : Constant
Bit rate : 640 kb/s
Channel(s) : 6 channels
Channel layout : L R C LFE Ls Rs
Sampling rate : 48.0 kHz
Frame rate : 31.250 FPS (1536 SPF)
Bit depth : 16 bits
Compression mode : Lossy
Stream size : 565 MiB (7%)
Language : Chinese
Service kind : Complete Main
Default : Yes
Forced : Yes

Text
ID : 3
Format : UTF-8
Codec ID : S_TEXT/UTF8
Codec ID/Info : UTF-8 Plain Text
Language : English
Default : Yes
Forced : No





1 个附件 售价 大小 下载 时间

Wu.Yen.2001.1080p.BluRay.x264-aBD.torrent 0 金币 40.14K 1631 次 7天前

#1楼
发帖时间:2019-06-13 01:13:28   |   回复数:3
liyouchai
超凡入圣№
谢谢楼主分享资源
7天前 #2楼
jokingcheung
一代宗师
谢谢分享
7天前 #3楼
911degrees
隐世仙人♂
非常感谢,谢谢分享
7天前 #4楼
游客组