conanlcg
超级版主

[2019] [其他] [剧情] [BD-Remux] 教授与疯子/牛津解密 The.Professor.and.the.Madman.2019.1080p.BluRay.REMUX.AVC.DTS-HD.MA.5.

-->

帖子完整标题:教授与疯子/牛津解密 The.Professor.and.the.Madman.2019.1080p.BluRay.REMUX.AVC.DTS-HD.MA.5.1-FGT 27.86GB




◎译  名 教授与疯子 / 牛津解密(台)
◎片  名 The Professor and the Madman
◎年  代 2019
◎产  地 爱尔兰
◎类  别 剧情 / 传记
◎语  言 英语
◎上映日期 2019-03-15(墨西哥)
◎IMDb评分 7.4/10 from 8219 users
◎IMDb链接 http://www.imdb.com/title/tt5932728
◎豆瓣评分 7.7/10 from 2563 users
◎豆瓣链接 https://movie.douban.com/subject/26848640/
◎片  长 124分钟
◎导  演 法尔哈德·撒夫尼亚 Farhad Safinia
◎编  剧 约翰·保曼 John Boorman / 托德·考马尔尼基 Todd Komarnicki / 法尔哈德·撒夫尼亚 Farhad Safinia / 西蒙·温彻斯特 Simon Winchester
◎主  演 梅尔·吉布森 Mel Gibson
      西恩·潘 Sean Penn
      娜塔莉·多默尔 Natalie Dormer
      詹妮弗·艾莉 Jennifer Ehle
      斯蒂芬·迪兰 Stephen Dillane
      埃迪·马森 Eddie Marsan
      艾恩·格拉法德 Ioan Gruffudd
      杰瑞米·艾文 Jeremy Irvine
      艾丹·麦克阿德尔 Aidan McArdle
      布伦丹·帕特里克斯 Brendan Patricks
      亚当·弗格斯 Adam Fergus
      布赖恩·福琼 Brian Fortune
      布莱恩·默里 Bryan Murray
      戴维·克罗利 David Crowley
      克里斯托弗·马利基 Christopher Maleki
      马尔科姆·弗里曼 Malcolm Freeman
      斯蒂夫根恩 Steve Gunn
      约翰·莫顿 John Morton
      肖恩·达根 Sean Duggan
      乔·麦金尼 Joe McKinney
      布赖恩·奎恩 Bryan Quinn


◎标  签 传记 | 历史 | 剧情 | 爱尔兰 | 2019 | 真实事件改编 | 辞典 | 词典

◎简  介

  影片故事根据真实事件改编,詹姆斯·默里博士(梅尔·吉布森饰演)领导下的编委会要进行新版本的《牛津英语字典》的编辑,以当时的人力科技水平,完成字典的编撰要一个世纪才能完成,詹姆斯·默里博士开创性的采用了全民参与的方式,让全英使用英语的人一起为字典收集词条定义,并通过寄信的方式发送给编撰组。
在收集定义过程中,他们发现了一个叫W.C.迈纳(西恩·潘饰演)的医生独自贡献了一万多条引语,这是一个专业语言学者都很难完成的工作量。当编委会决定向他致敬时,一个惊人的事实曝光了:原来迈纳医生,是美国内战时期部队的一个军医,因为患有精神分裂症而犯杀人罪,被禁闭在精神病院,是一个被认为是疯子的人。
一位教授、一个疯子,人类历史上最早的英语大词典就这样在两个迥然不同的人手中诞生。

Video
ID : 1
Format : AVC
Format/Info : Advanced Video Codec
Format profile : [email protected]
Format settings : CABAC / 4 Ref Frames
Format settings, CABAC : Yes
Format settings, ReFrames : 4 frames
Codec ID : V_MPEG4/ISO/AVC
Duration : 2 h 4 min
Bit rate mode : Constant
Bit rate : 30.0 Mb/s
Width : 1 920 pixels
Height : 1 080 pixels
Display aspect ratio : 16:9
Frame rate mode : Constant
Frame rate : 23.976 (24000/1001) FPS
Standard : NTSC
Color space : YUV
Chroma subsampling : 4:2:0
Bit depth : 8 bits
Scan type : Progressive
Bits/(Pixel*Frame) : 0.603
Stream size : 24.9 GiB (89%)
Title : The.Professor.and.the.Madman.2019.1080p.BluRay.REMUX.AVC.DTS-HD.MA.5.1-FGT
Language : English
Default : No
Forced : No
Color range : Limited
Color primaries : BT.709
Transfer characteristics : BT.709
Matrix coefficients : BT.709

Audio #1
ID : 2
Format : DTS XLL
Format/Info : Digital Theater Systems
Commercial name : DTS-HD Master Audio
Codec ID : A_DTS
Duration : 2 h 4 min
Bit rate mode : Variable
Bit rate : 1 853 kb/s
Channel(s) : 6 channels
Channel layout : C L R Ls Rs LFE
Sampling rate : 48.0 kHz
Frame rate : 93.750 FPS (512 SPF)
Bit depth : 16 bits
Compression mode : Lossless
Stream size : 1.61 GiB (6%)
Title : The.Professor.and.the.Madman.2019.1080p.BluRay.REMUX.AVC.DTS-HD.MA.5.1-FGT
Language : English
Default : Yes
Forced : No

Audio #2
ID : 3
Format : PCM
Format settings : Little / Signed
Codec ID : A_PCM/INT/LIT
Duration : 2 h 4 min
Bit rate mode : Constant
Bit rate : 1 536 kb/s
Channel(s) : 2 channels
Sampling rate : 48.0 kHz
Frame rate : 30.000 FPS (1600 SPF)
Bit depth : 16 bits
Stream size : 1.34 GiB (5%)
Title : The.Professor.and.the.Madman.2019.1080p.BluRay.REMUX.AVC.DTS-HD.MA.5.1-FGT
Language : English
Default : No
Forced : No

Text
ID : 4
Format : PGS
Muxing mode : zlib
Codec ID : S_HDMV/PGS
Codec ID/Info : Picture based subtitle format used on BDs/HD-DVDs
Duration : 1 h 57 min
Bit rate : 35.6 kb/s
Count of elements : 3358
Stream size : 29.9 MiB (0%)
Title : English-PGS
Language : English
Default : Yes
Forced : No

Menu
00:00:00.000 : en:Chapter 01
00:15:11.327 : en:Chapter 02
00:42:26.335 : en:Chapter 03
01:05:14.201 : en:Chapter 04
01:26:20.550 : en:Chapter 05
01:45:36.246 : en:Chapter 06





1 个附件 售价 大小 下载 时间

The.Professor.and.the.Madman.2019.1080p.BluRay.REMUX.AVC.DTS-HD.MA.5.1-FGT.torrent 0 金币 70.22K 1253 次 2月前

#1楼
发帖时间:2019-06-12 15:46:49   |   回复数:3
liyouchai
隐世仙人♂
谢谢楼主分享资源
2月前 #2楼
911degrees
隐世仙人♂
非常感谢,谢谢分享
2月前 #3楼
pokuan909
武林高手
非常感谢,谢谢分享
2月前 #4楼
游客组