conanlcg
超级版主

[2019] [其他] [其他] [WEB-1080P] 冰上火 Ice.on.Fire.2019.1080p.WEBRip.x264-RARBG 1.86GB

-->

帖子完整标题:冰上火 Ice.on.Fire.2019.1080p.WEBRip.x264-RARBG 1.86GB




◎译  名 冰上火
◎片  名 Ice on Fire
◎年  代 2019
◎产  地 美国 / 哥斯达黎加 / 克罗地亚 / 法国 / 德国 / 冰岛 / 挪威 / 瑞士 / 英国
◎类  别 纪录片
◎语  言 英语
◎上映日期 2019-05-22(戛纳电影节)
◎IMDb评分 8.1/10 from 42 users
◎IMDb链接 http://www.imdb.com/title/tt9114472
◎豆瓣评分 0/10 from 0 users
◎豆瓣链接 https://movie.douban.com/subject/33432171/
◎片  长 91分钟
◎导  演 莱拉?康纳斯 Leila Conners

◎标  签 纪录片 | 莱拉?康纳斯 | 戛纳电影节 | P-CannesE特别展映 | HBO | 自然 | 美国 | 欧美

◎简  介

  Can we reverse climate change? Ice on Fire explores the many ways we reduce carbon inputs to the atmosphere and, more important, how to "draw" carbon down, bringing CO2 out of the atmosphere and thus paving the way for global temperatures to go down. Reversing climate change is urgent, given that the world passed 400 parts per million CO2 in the atmosphere resulting in climate instability across the globe. We have heard the predictions but now climate related events are a daily reality - summer 2018 was the hottest on record, storms are stronger, droughts are longer, the arctic ice is thin or non-existent and antarctica is melting faster than predicted. Through visiting visionaries and scientists young and old, the film explores the deep hope that we can turn away from the brink. And, just as we figure out drawdown, we face an added complexity, the release of methane, a powerful greenhouse gas in the arctic, that is now entering the atmsphere. As the film says: "Is it game over? Or is it game on? As we have at hand, the ability, the capacity, and solutions that can reverse global warming...not mitigate, not reduce, not stabilize, but reverse.'

Video
ID : 1
Format : AVC
Format/Info : Advanced Video Codec
Format profile : [email protected]
Format settings : CABAC / 4 Ref Frames
Format settings, CABAC : Yes
Format settings, ReFrames : 4 frames
Codec ID : avc1
Codec ID/Info : Advanced Video Coding
Duration : 1 h 37 min
Bit rate : 2 500 kb/s
Width : 1 920 pixels
Height : 1 080 pixels
Display aspect ratio : 16:9
Frame rate mode : Constant
Frame rate : 23.976 (23976/1000) FPS
Color space : YUV
Chroma subsampling : 4:2:0
Bit depth : 8 bits
Scan type : Progressive
Bits/(Pixel*Frame) : 0.050
Stream size : 1.71 GiB (92%)
Writing library : x264 core 152 r2851M ba24899
Encoding settings : cabac=1 / ref=4 / deblock=1:-1:-1 / analyse=0x3:0x113 / me=umh / subme=9 / psy=1 / psy_rd=1.00:0.15 / mixed_ref=1 / me_range=24 / chroma_me=1 / trellis=2 / 8x8dct=1 / cqm=0 / deadzone=21,11 / fast_pskip=1 / chroma_qp_offset=-3 / threads=16 / lookahead_threads=4 / sliced_threads=0 / nr=0 / decimate=1 / interlaced=0 / bluray_compat=0 / constrained_intra=0 / bframes=3 / b_pyramid=2 / b_adapt=2 / b_bias=0 / direct=3 / weightb=1 / open_gop=0 / weightp=2 / keyint=250 / keyint_min=25 / scenecut=40 / intra_refresh=0 / rc_lookahead=50 / rc=2pass / mbtree=1 / bitrate=2500 / ratetol=1.0 / qcomp=0.60 / qpmin=0 / qpmax=69 / qpstep=4 / cplxblur=20.0 / qblur=0.5 / vbv_maxrate=31250 / vbv_bufsize=31250 / nal_hrd=none / filler=0 / ip_ratio=1.40 / aq=3:1.00
Encoded date : UTC 2019-06-12 03:48:24
Tagged date : UTC 2019-06-12 03:48:24
Codec configuration box : avcC

Audio
ID : 2
Format : AAC LC
Format/Info : Advanced Audio Codec Low Complexity
Codec ID : mp4a-40-2
Duration : 1 h 37 min
Bit rate mode : Constant
Bit rate : 224 kb/s
Channel(s) : 6 channels
Channel layout : C L R Ls Rs LFE
Sampling rate : 48.0 kHz
Frame rate : 46.875 FPS (1024 SPF)
Compression mode : Lossy
Stream size : 157 MiB (8%)
Language : English
Default : Yes
Alternate group : 1
Encoded date : UTC 2019-06-12 03:48:24
Tagged date : UTC 2019-06-12 03:48:24





1 个附件 售价 大小 下载 时间

Ice.on.Fire.2019.1080p.WEBRip.x264-RARBG.torrent 0 金币 19.29K 462 次 2月前

#1楼
发帖时间:2019-06-12 14:53:29   |   回复数:2
liyouchai
隐世仙人♂
谢谢楼主分享资源
2月前 #2楼
911degrees
隐世仙人♂
非常感谢,谢谢分享
2月前 #3楼
游客组