conanlcg
超级版主

[2019] [其他] [其他] [WEB-720P] 冰上火 Ice.on.Fire.2019.720p.AMZN.WEBRip.DDP5.1.x264-monkee 3.60GB

-->

帖子完整标题:冰上火 Ice.on.Fire.2019.720p.AMZN.WEBRip.DDP5.1.x264-monkee 3.60GB




◎译  名 冰上火
◎片  名 Ice on Fire
◎年  代 2019
◎产  地 美国 / 哥斯达黎加 / 克罗地亚 / 法国 / 德国 / 冰岛 / 挪威 / 瑞士 / 英国
◎类  别 纪录片
◎语  言 英语
◎上映日期 2019-05-22(戛纳电影节)
◎IMDb评分 8.1/10 from 42 users
◎IMDb链接 http://www.imdb.com/title/tt9114472
◎豆瓣评分 0/10 from 0 users
◎豆瓣链接 https://movie.douban.com/subject/33432171/
◎片  长 91分钟
◎导  演 莱拉?康纳斯 Leila Conners

◎标  签 纪录片 | 莱拉?康纳斯 | 戛纳电影节 | P-CannesE特别展映 | HBO | 自然 | 美国 | 欧美

◎简  介

  Can we reverse climate change? Ice on Fire explores the many ways we reduce carbon inputs to the atmosphere and, more important, how to "draw" carbon down, bringing CO2 out of the atmosphere and thus paving the way for global temperatures to go down. Reversing climate change is urgent, given that the world passed 400 parts per million CO2 in the atmosphere resulting in climate instability across the globe. We have heard the predictions but now climate related events are a daily reality - summer 2018 was the hottest on record, storms are stronger, droughts are longer, the arctic ice is thin or non-existent and antarctica is melting faster than predicted. Through visiting visionaries and scientists young and old, the film explores the deep hope that we can turn away from the brink. And, just as we figure out drawdown, we face an added complexity, the release of methane, a powerful greenhouse gas in the arctic, that is now entering the atmsphere. As the film says: "Is it game over? Or is it game on? As we have at hand, the ability, the capacity, and solutions that can reverse global warming...not mitigate, not reduce, not stabilize, but reverse.'

Video
ID : 1
Format : AVC
Format/Info : Advanced Video Codec
Format profile : [email protected]
Format settings : CABAC / 4 Ref Frames
Format settings, CABAC : Yes
Format settings, ReFrames : 4 frames
Codec ID : V_MPEG4/ISO/AVC
Duration : 1 h 37 min
Bit rate mode : Constant
Bit rate : 4 632 kb/s
Nominal bit rate : 6 000 kb/s
Width : 1 280 pixels
Height : 720 pixels
Display aspect ratio : 16:9
Frame rate mode : Constant
Frame rate : 23.976 (24000/1001) FPS
Color space : YUV
Chroma subsampling : 4:2:0
Bit depth : 8 bits
Scan type : Progressive
Bits/(Pixel*Frame) : 0.210
Stream size : 3.16 GiB (88%)
Default : Yes
Forced : No
Color range : Limited
Color primaries : BT.709
Transfer characteristics : BT.709
Matrix coefficients : BT.709

Audio
ID : 2
Format : E-AC-3
Format/Info : Enhanced AC-3
Commercial name : Dolby Digital Plus
Codec ID : A_EAC3
Duration : 1 h 37 min
Bit rate mode : Constant
Bit rate : 640 kb/s
Channel(s) : 6 channels
Channel layout : L R C LFE Ls Rs
Sampling rate : 48.0 kHz
Frame rate : 31.250 FPS (1536 SPF)
Compression mode : Lossy
Stream size : 447 MiB (12%)
Language : English
Service kind : Complete Main
Default : Yes
Forced : No

Text #1
ID : 3
Format : UTF-8
Codec ID : S_TEXT/UTF8
Codec ID/Info : UTF-8 Plain Text
Duration : 1 h 36 min
Bit rate : 92 b/s
Count of elements : 1596
Stream size : 65.7 KiB (0%)
Title : English
Language : English
Default : No
Forced : No

Text #2
ID : 4
Format : UTF-8
Codec ID : S_TEXT/UTF8
Codec ID/Info : UTF-8 Plain Text
Duration : 1 h 36 min
Bit rate : 92 b/s
Count of elements : 1603
Stream size : 65.9 KiB (0%)
Title : English SDH
Language : English
Default : No
Forced : No





1 个附件 售价 大小 下载 时间

Ice.on.Fire.2019.720p.AMZN.WEBRip.DDP5.1.x264-monkee.torrent 0 金币 36.54K 245 次 5天前

#1楼
发帖时间:2019-06-12 14:01:02   |   回复数:2
911degrees
隐世仙人♂
非常感谢,谢谢分享
5天前 #2楼
liyouchai
超凡入圣№
谢谢楼主分享资源
4天前 #3楼
游客组