conanlcg
超级版主

[2018] [欧美] [其他] [WEB-1080P] 魅力之城 Charm.City.2018.1080p.AMZN.WEBRip.DDP5.1.x264-BLUTONiUM 8.51GB

-->

帖子完整标题:魅力之城 Charm.City.2018.1080p.AMZN.WEBRip.DDP5.1.x264-BLUTONiUM 8.51GB




◎译  名 魅力之城
◎片  名 Charm City
◎年  代 2018
◎产  地 美国
◎类  别 纪录片
◎语  言 英语
◎上映日期 2018-04-22(美国)
◎IMDb评分 7.9/10 from 66 users
◎IMDb链接 http://www.imdb.com/title/tt8196200
◎豆瓣评分 0/10 from 0 users
◎豆瓣链接 https://movie.douban.com/subject/30351106/
◎片  长 108分钟
◎导  演 Marilyn Ness

◎标  签 纪录片 | 犯罪 | 电影 | 巴尔的摩 | 美国电影 | 美国 | 纪录 | Documentary

◎简  介

  On the streets of Baltimore, shooting is rampant, the murder rate is approaching an all-time high and the distrust of the police is at a fever pitch. With nerves frayed and neighborhoods in distress, dedicated community leaders, compassionate law-enforcement officers and a progressive young city councilman try to stem the epidemic of violence. Filmed over three tumultuous years covering the lead up to, and aftermath of, Freddie Gray’s death in police custody, CHARM CITY is an intimate cinema verité portrait of those surviving in, and fighting for, the vibrant city they call home. Directed by renowned documentary producer Marilyn Ness (Cameraperson; Trapped; E-Team).

Video
ID : 1
Format : AVC
Format/Info : Advanced Video Codec
Format profile : [email protected]
Format settings : CABAC / 4 Ref Frames
Format settings, CABAC : Yes
Format settings, ReFrames : 4 frames
Codec ID : V_MPEG4/ISO/AVC
Duration : 1 h 46 min
Bit rate : 10.8 Mb/s
Width : 1 920 pixels
Height : 1 080 pixels
Display aspect ratio : 16:9
Frame rate mode : Constant
Frame rate : 23.976 (24000/1001) FPS
Color space : YUV
Chroma subsampling : 4:2:0
Bit depth : 8 bits
Scan type : Progressive
Bits/(Pixel*Frame) : 0.217
Stream size : 8.04 GiB (94%)
Default : Yes
Forced : No
Color range : Limited
Color primaries : BT.709
Transfer characteristics : BT.709
Matrix coefficients : BT.709

Audio
ID : 2
Format : E-AC-3
Format/Info : Enhanced AC-3
Commercial name : Dolby Digital Plus
Codec ID : A_EAC3
Duration : 1 h 46 min
Bit rate mode : Constant
Bit rate : 640 kb/s
Channel(s) : 6 channels
Channel layout : L R C LFE Ls Rs
Sampling rate : 48.0 kHz
Frame rate : 31.250 FPS (1536 SPF)
Compression mode : Lossy
Stream size : 488 MiB (6%)
Title : English
Language : English
Service kind : Complete Main
Default : Yes
Forced : No

Text
ID : 3
Format : UTF-8
Codec ID : S_TEXT/UTF8
Codec ID/Info : UTF-8 Plain Text
Duration : 1 h 43 min
Bit rate : 80 b/s
Count of elements : 1734
Stream size : 60.9 KiB (0%)
Title : English [SDH]
Language : English
Default : No
Forced : No





2 个附件 售价 大小 下载 时间

Charm.City.2018.1080p.AMZN.WEBRip.DDP5.1.x264-BLUTONiUM.torrent 0 金币 43.11K 161 次 5天前

Charm.City.2018.720p.AMZN.WEBRip.DDP5.1.x264-BLUTONiUM.torrent 0 金币 29.04K 77 次 5天前

#1楼
发帖时间:2019-06-12 14:00:48   |   回复数:2
911degrees
隐世仙人♂
非常感谢,谢谢分享
5天前 #2楼
liyouchai
超凡入圣№
谢谢楼主分享资源
4天前 #3楼
游客组