conanlcg
超级版主

[2019] [欧美] [惊悚] [BD-1080P] 我们/我们·异 Us.2019.1080p.BluRay.x264-GECKOS 7.95GB

-->

帖子完整标题:我们/我们·异 Us.2019.1080p.BluRay.x264-GECKOS 7.95GB




◎译  名 我们 / 我们·异(港)
◎片  名 Us
◎年  代 2019
◎产  地 美国
◎类  别 惊悚 / 恐怖
◎语  言 英语
◎上映日期 2019-03-08(西南偏南电影节) / 2019-03-22(美国)
◎IMDb评分 7.3/10 from 78180 users
◎IMDb链接 http://www.imdb.com/title/tt6857112
◎豆瓣评分 7.4/10 from 5341 users
◎豆瓣链接 https://movie.douban.com/subject/27053945/
◎片  长 116分钟
◎导  演 乔丹·皮尔 Jordan Peele
◎编  剧 乔丹·皮尔 Jordan Peele
◎主  演 露皮塔·尼永奥 Lupita Nyong'o
      温斯顿·杜克 Winston Duke
      伊丽莎白·莫斯 Elisabeth Moss
      蒂姆·海德克 Tim Heidecker
      莎哈迪·赖特·约瑟夫 Shahadi Wright Joseph
      伊万·艾利克斯 Evan Alex
      叶海亚·阿卜杜勒-迈丁 Yahya Abdul-Mateen II
      安娜·迪奥普 Anna Diop
      卡莉·谢尔顿 Cali Sheldon
      诺尔·谢尔顿 Noelle Sheldon
      麦迪逊·柯里 Madison Curry
      纳皮埃拉·格罗夫斯 Napiera Groves
      杜克·尼科尔森 Duke Nicholson
      纳丹·哈灵顿 Nathan Harrington
      卡拉·海沃德 Kara Hayward


◎标  签 恐怖 | 惊悚 | 悬疑 | 美国 | 2019 | 剧情 | 黑人 | 人性

◎简  介

  一对名为阿德莱德和盖博的夫妻带着孩子到海滨度假,这里曾经是阿莱德莱童年的娱乐场所。在海滨与泰勒一家玩了一天之后,阿德莱德愈发地无法从往昔的伤痛中走出,他越来越觉得自己的家庭将要发生灾难。到了晚上,他们一家甚至看到有四个人手拉手在行车道上站立,似乎有更多诡异的事情等待着他们。

Video
ID : 1
Format : AVC
Format/Info : Advanced Video Codec
Format profile : [email protected]
Format settings : CABAC / 5 Ref Frames
Format settings, CABAC : Yes
Format settings, ReFrames : 5 frames
Codec ID : V_MPEG4/ISO/AVC
Duration : 1 h 56 min
Bit rate : 9 124 kb/s
Width : 1 920 pixels
Height : 808 pixels
Display aspect ratio : 2.40:1
Frame rate mode : Constant
Frame rate : 23.976 (24000/1001) FPS
Color space : YUV
Chroma subsampling : 4:2:0
Bit depth : 8 bits
Scan type : Progressive
Bits/(Pixel*Frame) : 0.245
Stream size : 7.42 GiB (93%)
Writing library : x264 core 157 r2970 5493be8
Encoding settings : cabac=1 / ref=5 / deblock=1:-3:-3 / analyse=0x3:0x113 / me=umh / subme=8 / psy=1 / psy_rd=1.00:0.00 / mixed_ref=1 / me_range=16 / chroma_me=1 / trellis=1 / 8x8dct=1 / cqm=0 / deadzone=21,11 / fast_pskip=1 / chroma_qp_offset=-2 / threads=25 / lookahead_threads=4 / sliced_threads=0 / nr=0 / decimate=1 / interlaced=0 / bluray_compat=0 / constrained_intra=0 / bframes=3 / b_pyramid=2 / b_adapt=1 / b_bias=0 / direct=3 / weightb=1 / open_gop=0 / weightp=2 / keyint=250 / keyint_min=23 / scenecut=40 / intra_refresh=0 / rc_lookahead=50 / rc=2pass / mbtree=1 / bitrate=9124 / ratetol=1.0 / qcomp=0.60 / qpmin=0 / qpmax=69 / qpstep=4 / cplxblur=20.0 / qblur=0.5 / ip_ratio=1.40 / aq=1:1.00
Language : English
Default : Yes
Forced : No

Audio
ID : 2
Format : AC-3
Format/Info : Audio Coding 3
Commercial name : Dolby Digital
Codec ID : A_AC3
Duration : 1 h 56 min
Bit rate mode : Constant
Bit rate : 640 kb/s
Channel(s) : 6 channels
Channel layout : L R C LFE Ls Rs
Sampling rate : 48.0 kHz
Frame rate : 31.250 FPS (1536 SPF)
Bit depth : 16 bits
Compression mode : Lossy
Stream size : 533 MiB (7%)
Language : English
Service kind : Complete Main
Default : Yes
Forced : No





1 个附件 售价 大小 下载 时间

Us.2019.1080p.BluRay.x264-GECKOS.torrent 0 金币 40.56K 10941 次 2月前

#1楼
发帖时间:2019-06-11 10:05:24   |   回复数:8
jokingcheung
一代宗师
谢谢分享
2月前 #2楼
XJ
江湖小虾
版主发片好快,必须点赞!
2月前 #3楼
thawen
无名小卒
谢谢版主分享
2月前 #4楼
newblee
小有名气
感谢楼主分享。
2月前 #5楼
911degrees
隐世仙人♂
非常感谢,谢谢分享
2月前 #6楼
chulps
一代宗师
ddd
2月前 #7楼
solodl
武林高手
喜欢二战题材!
2月前 #8楼
liyouchai
隐世仙人♂
谢谢楼主分享资源
2月前 #9楼
游客组