conanlcg
超级版主

[2019] [欧美] [动作] [BD-1080P] 惊奇队长[外挂字幕] Captain.Marvel.2019.1080p.BluRay.x264.DTS-HD.MA.7.1-FGT 11.58GB

-->






帖子完整标题:惊奇队长/Marvel队长 Captain.Marvel.2019.1080p.BluRay.x264.DTS-HD.MA.7.1-FGT 11.58GB






◎译  名 惊奇队长 / Marvel队长(港) / 惊奇女士 / 漫威队长
◎片  名 Captain Marvel
◎年  代 2019
◎产  地 美国
◎类  别 动作 / 科幻 / 冒险
◎语  言 英语
◎上映日期 2019-03-08(美国/中国大陆)
◎IMDb评分  7.1/10 from 268698 users
◎IMDb链接  http://www.imdb.com/title/tt4154664
◎豆瓣评分 7.0/10 from 298554 users
◎豆瓣链接 https://movie.douban.com/subject/26213252/
◎片  长 124分钟
◎导  演 安娜·波顿 Anna Boden / 瑞安·弗雷克 Ryan Fleck
◎编  剧 安娜·波顿 Anna Boden / 瑞安·弗雷克 Ryan Fleck / 吉内瓦·德沃莱特-罗宾森 Geneva Dworet-Robertson / 尼科尔·帕尔曼 Nicole Perlman / 梅格·勒福夫 Meg LeFauve
◎主  演 布丽·拉尔森 Brie Larson
      裘德·洛 Jude Law
      塞缪尔·杰克逊 Samuel L. Jackson
      本·门德尔森 Ben Mendelsohn
      安妮特·贝宁 Annette Bening
      麦肯娜·格瑞丝 Mckenna Grace
      克拉克·格雷格 Clark Gregg
      嘉玛·陈 Gemma Chan
      李·佩斯 Lee Pace
      杰曼·翰苏 Djimon Hounsou
      拉什纳·林奇 Lashana Lynch
      阿基拉·阿克巴 Akira Akbar
      科林·福特 Colin Ford
      卓库·莫度 Chuku Modu
      肯内特·米歇尔 Kenneth Mitchell
      罗伯特·卡辛斯基 Robert Kazinsky
      詹姆斯·莫里森 James Morrison
      皮特·普劳泽克 Pete Ploszek
      马修·马希尔 Matthew Maher
      安东尼·莫利纳利 Anthony Molinari
      马修·弗林·贝罗斯 Matthew Flynn Bellows
      加斯顿·达尔莫 Gastón Dalmau
      亚当·哈特 Adam Hart
      Mark Daugherty
      雷尼尔·鲁菲诺 Rayniel Rufino
      约翰·盖蒂尔 John Gettier
      斯坦·李 Stan Lee
      克里斯·埃文斯 Chris Evans
      斯嘉丽·约翰逊 Scarlett Johansson
      马克·鲁弗洛 Mark Ruffalo
      唐·钱德尔 Don Cheadle


◎标  签 漫威 | 超级英雄 | 女性 | 美国 | 科幻 | 2019 | 漫画改编 | 动作

◎简  介  

  在围剿斯克鲁人的战斗中,克里人星际战队成员弗斯(布丽·拉尔森 Brie Larson 饰)不幸成为对方的俘虏。斯克鲁人尝试探究弗斯的记忆,最终发现连弗斯本人都不知道的一段往事,进而也得知名为温迪?劳森博士的女子掌握着他们急于得到的时空引擎。趁对方不备,拥有强大超能力的弗斯摆脱束缚,逃到了代号为C-53的地球,而这里也正是她那段失落的记忆的发生地。未过多久,神盾局探员弗瑞特工(塞缪尔·杰克逊 Samuel L. Jackson 饰)找上门来,而紧随其后的斯克鲁人更是引发了地球人前所未见的大骚动。
在这一过程中,弗瑞特工意识到事态的严重性,并且帮助弗斯认清本来的自己。倔强的弗斯,终于找到了真正需要保护的东西……

◎获奖情况  

  第5届豆瓣电影年度榜单(2018)
  最值得期待的外语电影(提名)



Video
ID                                       : 1
Format                                   : AVC
Format/Info                              : Advanced Video Codec
Format profile                           : [email protected]
Format settings                          : CABAC / 5 Ref Frames
Format settings, CABAC                   : Yes
Format settings, ReFrames                : 5 frames
Format settings, GOP                     : M=1, N=3
Codec ID                                 : V_MPEG4/ISO/AVC
Duration                                 : 2 h 3 min
Bit rate                                 : 8 611 kb/s
Width                                    : 1 920 pixels
Height                                   : 808 pixels
Display aspect ratio                     : 2.40:1
Frame rate mode                          : Constant
Frame rate                               : 23.976 (24000/1001) FPS
Color space                              : YUV
Chroma subsampling                       : 4:2:0
Bit depth                                : 8 bits
Scan type                                : Progressive
Bits/(Pixel*Frame)                       : 0.232
Stream size                              : 7.44 GiB (64%)
Title                                    : Captain.Marvel.2019.1080p.BluRay.x264.DTS-HD.MA.7.1-FGT
Writing library                          : x264 core 157 r2970 5493be8
Encoding settings                        : cabac=1 / ref=5 / deblock=1:-3:-3 / analyse=0x3:0x113 / me=umh / subme=8 / psy=1 / psy_rd=1.00:0.00 / mixed_ref=1 / me_range=16 / chroma_me=1 / trellis=1 / 8x8dct=1 / cqm=0 / deadzone=21,11 / fast_pskip=1 / chroma_qp_offset=-2 / threads=25 / lookahead_threads=4 / sliced_threads=0 / nr=0 / decimate=1 / interlaced=0 / bluray_compat=0 / constrained_intra=0 / bframes=3 / b_pyramid=2 / b_adapt=1 / b_bias=0 / direct=3 / weightb=1 / open_gop=0 / weightp=2 / keyint=250 / keyint_min=23 / scenecut=40 / intra_refresh=0 / rc_lookahead=50 / rc=2pass / mbtree=1 / bitrate=8611 / ratetol=1.0 / qcomp=0.60 / qpmin=0 / qpmax=69 / qpstep=4 / cplxblur=20.0 / qblur=0.5 / ip_ratio=1.40 / aq=1:1.00
Language                                 : English
Default                                  : Yes
Forced                                   : No

Audio
ID                                       : 2
Format                                   : DTS XLL
Format/Info                              : Digital Theater Systems
Commercial name                          : DTS-HD Master Audio
Codec ID                                 : A_DTS
Duration                                 : 2 h 3 min
Bit rate mode                            : Variable
Bit rate                                 : 4 777 kb/s
Channel(s)                               : 8 channels
Channel layout                           : C L R LFE Lb Rb Lss Rss
Sampling rate                            : 48.0 kHz
Frame rate                               : 93.750 FPS (512 SPF)
Bit depth                                : 24 bits
Compression mode                         : Lossless
Stream size                              : 4.13 GiB (36%)
Title                                    : Captain.Marvel.2019.1080p.BluRay.x264.DTS-HD.MA.7.1-FGT
Language                                 : English
Default                                  : Yes
Forced                                   : No

Text #1
ID                                       : 3
Format                                   : UTF-8
Codec ID                                 : S_TEXT/UTF8
Codec ID/Info                            : UTF-8 Plain Text
Duration                                 : 1 h 53 min
Bit rate                                 : 47 b/s
Count of elements                        : 1422
Stream size                              : 39.7 KiB (0%)
Title                                    : English-SRT
Language                                 : English
Default                                  : Yes
Forced                                   : No

Text #2
ID                                       : 4
Format                                   : PGS
Muxing mode                              : zlib
Codec ID                                 : S_HDMV/PGS
Codec ID/Info                            : Picture based subtitle format used on BDs/HD-DVDs
Duration                                 : 2 h 2 min
Bit rate                                 : 33.1 kb/s
Count of elements                        : 3330
Stream size                              : 29.0 MiB (0%)
Title                                    : English-PGS
Language                                 : English
Default                                  : No
Forced                                   : No

Menu
00:00:00.000                             : en:00:00:00.000
00:06:52.120                             : en:00:06:52.120
00:14:07.889                             : en:00:14:07.889
00:23:18.272                             : en:00:23:18.272
00:29:38.026                             : en:00:29:38.026
00:35:07.772                             : en:00:35:07.772
00:44:08.437                             : en:00:44:08.437
00:50:43.499                             : en:00:50:43.499
00:56:18.625                             : en:00:56:18.625
01:03:02.821                             : en:01:03:02.821
01:11:17.398                             : en:01:11:17.398
01:17:49.164                             : en:01:17:49.164
01:27:03.051                             : en:01:27:03.051
01:33:22.430                             : en:01:33:22.430
01:40:51.796                             : en:01:40:51.796
01:46:25.087                             : en:01:46:25.087
01:52:49.888                             : en:01:52:49.888






2 个附件 售价 大小 下载 时间

Captain.Marvel.2019.1080p.BluRay.x264.DTS-HD.MA.7.1-FGT.torrent 0 金币 58.44K 43586 次 2月前

字幕-人人影视.zip 0 金币 374.21K 25253 次 2月前

#1楼
发帖时间:2019-05-30 11:31:26   |   回复数:29
紫雾金芒
武林高手
呵呵,感谢分享惊奇队长
2月前 #2楼
igefcufppt
武林高手
谢谢楼主分享好片
2月前 #3楼
qq262935862
武林高手
谢谢楼主分享
2月前 #4楼
zzufo
武林高手
感谢楼主分享,谢谢!
2月前 #5楼
gylxp800
武林高手
感谢楼主分享!!!!!
2月前 #6楼
Ghost_wzy
武林盟主
感谢版主分享!!!
2月前 #7楼
笑凡
一派掌门
感谢版主分享
2月前 #8楼
mscn-000
武林高手
多谢楼主分享资源..
2月前 #9楼
GNing
武林高手
thank you
2月前 #10楼
k01258
小有名气
这个版本也不错
2月前 #11楼
911degrees
隐世仙人♂
非常感谢,谢谢分享
2月前 #12楼
ie7
小有名气
终于
2月前 #13楼
apple319
武林盟主
非常感谢,谢谢分享
但名字怪怪地, 經期队長? hahahahha
2月前 #14楼
蜜糖水加生姜
武林高手
非常感谢,谢谢分享
2月前 #15楼
2627888
武林高手
终于等到你
2月前 #16楼
liyouchai
隐世仙人♂
谢谢楼主分享资源
2月前 #17楼
eric223
一代宗师
终于有了,感谢      
2月前 #18楼
feung18
武林高手
超棒的萬分感謝謝謝分享喔!!!!!!!!!!!!
2月前 #19楼
ff8590
武林高手
感谢楼主分享!
2月前 #20楼
游客组