aoloffline
版主

[2018] [欧美] [科幻] [HDTV/HDrip] [ВТ下载]铁血战士[韩版]The.Predator.2018.1080p.HDRip.x264.AAC2.0-STU 3.5GB

-->

The.Predator.2018.1080p.KORSUB.HDRip.x264.AAC2.0-STUTTERSHIT

◎译  名 铁血战士 / Predator 4 / 终极战士:掠夺者(台) / 铁血战士4 / 铁血战士新续集 / 铁血战士:血兽进化(港)

◎片  名 The Predator

◎年  代 2018

◎产  地 美国 / 加拿大

◎类  别 动作 / 科幻 / 惊悚 / 冒险

◎语  言 英语 / 西班牙语

◎上映日期 2018-09-07(多伦多电影节) / 2018-09-14(美国) / 2018-10-26(中国大陆)

◎IMDb评分 5.9/10 from 36417 users

◎IMDb链接 http://www.imdb.com/title/tt3829266

◎豆瓣评分 5.1/10 from 17264 users

◎豆瓣链接 https://movie.douban.com/subject/25917789/

◎BT之家整理 http://www.btbtt.us/

◎片  长 107分钟

◎导  演 沙恩·布莱克 Shane Black

◎编  剧 弗莱德·戴克尔 Fred Dekker / 沙恩·布莱克 Shane Black / 吉姆·托马斯 Jim Thomas / 约翰·托马斯 John Thomas

◎主  演 波伊德·霍布鲁克 Boyd Holbrook

      崔凡特·罗兹 Trevante Rhodes

      雅各布·特伦布莱 Jacob Tremblay

      科甘-迈克尔·凯 Keegan-Michael Key

      奥立薇娅·玛恩 Olivia Munn

      斯特林·K·布朗 Sterling K. Brown

      托马斯·简 Thomas Jane

      阿尔菲·艾伦 Alfie Allen

      Augusto Aguilera

      杰克·布塞 Jake Busey

      伊冯娜·斯特拉霍夫斯基 Yvonne Strahovski

      Brian A. Prince

      麦克·多普德 Mike Dopud

      尼尔迈特 Niall Matter

      加里·切克 Gary Chalk

      艾米·阿内克 Emy Aneke

      弗雷泽·艾奇逊 Fraser Aitcheson

      Jan Bos

      洛奇林·莫罗 Lochlyn Munro

      叶芳华 Françoise Yip

      里斯·威廉姆斯 Rhys Williams

      萨奇·布洛克勒班克 Sage Brocklebank

      肖恩·O.罗伯茨 Sean O. Roberts

      柯林·科里根 Colin Corrigan

      帕特里克·萨邦圭 Patrick Sabongui

      弗雷泽·科比特 Fraser Corbett

      阿隆·克拉文 Aaron Craven

      安德鲁·詹金斯 Andrew Jenkins





◎简  介  


  一艘宇宙飞船坠落地球,正在执行军事任务的狙击手奎因·麦肯纳(波伊德·霍布鲁克 饰演)恰好遭遇外星人并发生激战,侥幸逃脱的他捡到了外星人的装备并寄回了家想再做他用。传说这种被称为铁血战士的外星人曾数次光临地球,使用各种残忍的手段对人类进行猎杀游戏。而这一次,奎因的儿子罗里收到包裹后意外触发机关,引来了更强大的终极铁血士降临地球。而想要阻止其大开杀戒的却是一群问题士兵和一位生物科学家凯茜·布拉克(奥立薇娅·玛恩 饰演)。事情却远不像他们以为的那样简单,一场铁血、终极铁血与人类之间的三方猎杀大战正式拉响!


Video
ID : 1
Format : AVC
Format/Info : Advanced Video Codec
Format profile : High@L4.1
Format settings : CABAC / 4 Ref Frames
Format settings, CABAC : Yes
Format settings, ReFrames : 4 frames
Codec ID : V_MPEG4/ISO/AVC
Duration : 1 h 46 min
Bit rate : 4 519 kb/s
Width : 1 920 pixels
Height : 800 pixels
Display aspect ratio : 2.40:1
Frame rate mode : Constant
Frame rate : 30.000 FPS
Color space : YUV
Chroma subsampling : 4:2:0
Bit depth : 8 bits
Scan type : Progressive
Bits/(Pixel*Frame) : 0.098
Stream size : 3.34 GiB (95%)
Title : The.Predator.2018.1080p.KORSUB.HDRip.x264.AAC2.0-STUTTERSHIT
Writing library : x264 core 142 r2479 dd79a61
Encoding settings : cabac=1 / ref=1 / deblock=1:0:0 / analyse=0x3:0x113 / me=hex / subme=2 / psy=1 / psy_rd=1.00:0.00 / mixed_ref=0 / me_range=16 / chroma_me=1 / trellis=0 / 8x8dct=1 / cqm=0 / deadzone=21,11 / fast_pskip=1 / chroma_qp_offset=0 / threads=18 / lookahead_threads=6 / sliced_threads=0 / nr=0 / decimate=1 / interlaced=0 / bluray_compat=0 / constrained_intra=0 / bframes=3 / b_pyramid=2 / b_adapt=1 / b_bias=0 / direct=1 / weightb=1 / open_gop=0 / weightp=1 / keyint=300 / keyint_min=30 / scenecut=40 / intra_refresh=0 / rc_lookahead=10 / rc=abr / mbtree=1 / bitrate=4519 / ratetol=1.0 / qcomp=0.60 / qpmin=0 / qpmax=69 / qpstep=4 / vbv_maxrate=62500 / vbv_bufsize=78125 / nal_hrd=none / filler=0 / ip_ratio=1.40 / aq=1:1.00
Default : Yes
Forced : No
Color range : Limited
Color primaries : BT.709
Transfer characteristics : BT.709
Matrix coefficients : BT.709

Audio
ID : 2
Format : AAC LC
Format/Info : Advanced Audio Codec Low Complexity
Codec ID : A_AAC-2
Duration : 1 h 46 min
Bit rate : 256 kb/s
Channel(s) : 2 channels
Channel layout : L R
Sampling rate : 48.0 kHz
Frame rate : 46.875 FPS (1024 SPF)
Compression mode : Lossy
Stream size : 196 MiB (5%)
Title : The.Predator.2018.1080p.KORSUB.HDRip.x264.AAC2.0-STUTTERSHIT
Language : English
Default : Yes
Forced : No



1 个附件 售价 大小 下载 时间

The.Predator.2018.1080p.KORSUB.HDRip.x264.AAC2.0-STUTTERSHIT[btbtt.me].torrent 0 金币 71.26K 11800 次 7天前

#1楼
发帖时间:2018-11-09 17:34:16   |   回复数:7
GNing
武林高手
thank you
7天前 #2楼
sainzx
江湖小虾
thanks
7天前 #3楼
911degrees
隐世仙人♂
非常感谢,谢谢分享
7天前 #4楼
feung18
武林高手
感激摟主發佈!
7天前 #5楼
liyouchai
超凡入圣№
谢谢楼主分享资源
6天前 #6楼
blue23
隐世仙人♂
感谢楼主分享
5天前 #7楼
jifeng2008
武林高手
威武楼主
1天前 #8楼
游客组